<?xml version="1.0" encoding="UTF-8" standalone="no"?>
<svg xmlns="http://www.w3.org/2000/svg" xmlns:xlink="http://www.w3.org/1999/xlink" version="1.1">
  <metadata>
Created by FontForge 20201107 at Tue Jun 21 10:22:27 2011
 By 
Linux Libertine by Philipp H. Poll,
Open Font under Terms of following Free Software Licenses:
GPL (General Public License) with font-exception and OFL (Open Font License).
Created with FontForge (http://fontforge.sf.net)
Sept 2003, 2004, 2005, 2006, 2007, 2008, 2009, 2010, 2011
</metadata>
  <defs>
    <font id="LinBiolinum">
      <glyph glyph-name="ellipsis" unicode="..." d="M111 90v8q27 76 110 111h8q84 -31 111 -111v-8q-29 -90 -111 -110h-8q-49 10 -72.5 34.5t-37.5 75.5zM653 90v8q27 76 111 111h8q84 -31 111 -111v-8q-29 -90 -111 -110h-8q-49 10 -73 34.5t-38 75.5zM1194 90v8q27 76 111 111h8q84 -31 110 -111v-8q-29 -90 -110 -110 h-8q-49 10 -73 34.5t-38 75.5z"></glyph>
      <glyph glyph-name="exclamdbl" unicode="!!" d="M608 1352q45 0 80 -39t35 -111q0 -76 -22.5 -205t-30.5 -190q-12 -96 -19.5 -183t-9.5 -134.5t-4 -55.5q-4 -41 -28.5 -41t-28.5 27l-11 145q-10 145 -20 242q-8 72 -29.5 193.5t-21.5 201.5q0 76 34.5 113t75.5 37zM494 94v8q27 76 110 111h8q84 -31 111 -111v-8 q-29 -90 -111 -110h-8q-49 10 -72.5 34.5t-37.5 75.5zM231 1348q45 0 80 -39t35 -111q0 -76 -22.5 -205t-30.5 -190q-12 -96 -19.5 -183.5t-9.5 -134.5t-4 -55q-4 -41 -28.5 -41t-28.5 27l-10 145q-10 145 -21 242q-8 72 -29.5 193.5t-21.5 201.5q0 76 34.5 113t75.5 37z M117 90v8q27 76 110 111h9q84 -31 110 -111v-8q-29 -90 -110 -110h-9q-49 10 -72.5 34.5t-37.5 75.5z"></glyph>
      <glyph glyph-name="question_question" unicode="??" d="M1169 1268q-141 0 -251 -193l-27 2l-33 137l6 9q152 127 324 127q156 0 247 -84t91 -226q0 -76 -39 -142.5t-76 -99t-102 -79.5q-86 -63 -107 -103q-37 -72 -37 -149v-90q0 -20 -26.5 -20.5t-26.5 20.5v94q0 59 5 100t38 107.5t94 122.5q66 61 94.5 111.5t28.5 119.5 q0 100 -57.5 168t-145.5 68zM1024 90v8q27 76 111 111h8q84 -31 110 -111v-8q-29 -90 -110 -110h-8q-49 10 -73 34.5t-38 75.5zM399 1268q-141 0 -252 -193l-26 2l-33 137l6 9q152 127 324 127q156 0 247 -84t91 -226q0 -76 -39 -142.5t-76 -99t-102 -79.5 q-86 -63 -107 -103q-37 -72 -37 -149v-90q0 -20 -26.5 -20.5t-26.5 20.5v94q0 59 5 100t38 107.5t94 122.5q66 61 94.5 111.5t28.5 119.5q0 100 -57.5 168t-145.5 68zM254 90v8q27 76 111 111h8q84 -31 110 -111v-8q-29 -90 -110 -110h-8q-49 10 -73 34.5t-38 75.5z"></glyph>
      <glyph glyph-name="question_exclam" unicode="?!" d="M983 1352q45 0 80 -39t35 -111q0 -76 -22.5 -205t-31.5 -190q-12 -96 -19 -183t-9 -134.5t-4 -55.5q-4 -41 -29 -41t-29 27l-10 145q-10 145 -20 242q-8 72 -30 193.5t-22 201.5q0 76 35 113t76 37zM868 94v8q27 76 111 111h8q84 -31 111 -111v-8q-29 -90 -111 -110h-8 q-49 10 -73 34.5t-38 75.5zM399 1268q-141 0 -252 -193l-26 2l-33 137l6 9q152 127 324 127q156 0 247 -84t91 -226q0 -76 -39 -142.5t-76 -99t-102 -79.5q-86 -63 -107 -103q-37 -72 -37 -149v-90q0 -20 -26.5 -20.5t-26.5 20.5v94q0 59 5 100t38 107.5t94 122.5 q66 61 94.5 111.5t28.5 119.5q0 100 -57.5 168t-145.5 68zM254 90v8q27 76 111 111h8q84 -31 110 -111v-8q-29 -90 -110 -110h-8q-49 10 -73 34.5t-38 75.5z"></glyph>
      <glyph glyph-name="exclam_question" unicode="!?" d="M231 1348q45 0 80 -39t35 -111q0 -76 -22.5 -205t-30.5 -190q-12 -96 -19.5 -183.5t-9.5 -134.5t-4 -55q-4 -41 -28.5 -41t-28.5 27l-10 145q-10 145 -21 242q-8 72 -29.5 193.5t-21.5 201.5q0 76 34.5 113t75.5 37zM117 90v8q27 76 110 111h9q84 -31 110 -111v-8 q-29 -90 -110 -110h-9q-49 10 -72.5 34.5t-37.5 75.5zM772 1264q-141 0 -252 -193l-26 2l-33 137l6 9q152 127 324 127q156 0 246.5 -84t90.5 -226q0 -76 -38.5 -142.5t-75.5 -99t-103 -79.5q-86 -63 -106 -103q-37 -72 -37 -149v-90q0 -20 -26.5 -20.5t-26.5 20.5v94 q0 59 5 100t38 107.5t94 122.5q66 61 94.5 111t28.5 120q0 100 -57.5 168t-145.5 68zM627 86v8q27 76 110 111h8q84 -31 111 -111v-8q-29 -90 -111 -111h-8q-49 10 -72.5 35t-37.5 76z"></glyph>
      <glyph glyph-name="centigrade" unicode="°C" d="M1083 1249q98 0 195.5 -20.5t146.5 -40.5l50 -21l4 -4q-27 -88 -37 -205l-19 -2q-104 205 -366 205q-133 0 -254 -134t-121 -386q0 -236 98.5 -400.5t292.5 -164.5q129 0 215 38t180 142l43 -31q-188 -246 -436 -245q-186 0 -322.5 91t-201 231t-64.5 306q0 279 179 460 t417 181zM430 1141q0 57 -36 103t-99.5 46t-100 -45t-36.5 -104q0 -57 37.5 -100.5t99.5 -43.5q59 0 97 44.5t38 99.5zM90 1143q0 86 60.5 145.5t144.5 59.5t143.5 -59.5t59.5 -145.5q0 -84 -59.5 -143.5t-143.5 -59.5t-144.5 59.5t-60.5 143.5z"></glyph>
      <glyph glyph-name="fahrenheit" unicode="°F" d="M1282 1229q86 0 115 4l2 -4q-2 -27 -2 -62q0 -31 2 -47l-2 -6q-270 23 -510 23q-14 -53 -15 -269v-174q229 0 422 19l4 -6q-4 -16 -4 -52q0 -37 4 -53l-4 -6q-188 18 -422 18v-254q0 -244 17 -360l-2 -6q-35 6 -96 6l-99 -6l-2 6q18 123 19 360v508q0 225 -19 361l4 4 q35 -4 97 -4h491zM430 1141q0 57 -36 103t-99.5 46t-100 -45t-36.5 -104q0 -57 37.5 -100.5t99.5 -43.5q59 0 97 44.5t38 99.5zM90 1143q0 86 60.5 145.5t144.5 59.5t143.5 -59.5t59.5 -145.5q0 -84 -59.5 -143.5t-143.5 -59.5t-144.5 59.5t-60.5 143.5z"></glyph>
      <glyph glyph-name="f_t" unicode="ft" d="M203 788h-2q-94 0 -152 -4l-10 15q29 45 45 84q31 -4 119 -4v82q0 111 23.5 168t88.5 145q115 156 316 156q63 0 92 -19l2 -6q-25 -43 -57 -168l-23 -2q-39 72 -119 72q-84 0 -127 -60.5t-43 -150.5q0 -16 5.5 -92t5.5 -105v-20h434q0 162 -15 247l5 7q29 2 54 8t39.5 11 t37 16.5t34.5 15.5q18 0 19 -21q-10 -131 -10 -284h96q86 0 143 4l10 -15q-16 -41 -24 -84q-41 4 -148 4h-77v-292q0 -70 -3.5 -160t-3.5 -113q0 -68 14.5 -100.5t53.5 -32.5q98 0 161 36l25 -50q-104 -96 -258 -96q-72 0 -115.5 45t-43.5 116q0 23 3 142.5t3 189.5v315 h-434v-378q0 -272 20 -410l-4 -6q-29 6 -98 6l-101 -6l-2 6q20 129 21 410v378z"></glyph>
      <glyph glyph-name="t_t" unicode="tt" d="M793 788h-435v-292q0 -70 -3 -157t-3 -110q0 -68 14.5 -97.5t53.5 -29.5q77 0 141 37l25 -57q-111 -102 -238 -102q-72 0 -116 45t-44 116q0 23 3.5 142.5t3.5 189.5v315q-96 0 -146 -4l-10 15q29 45 45 84q29 -4 111 -4q0 63 4 145t4 117l4 6q31 4 52.5 11t49 20.5 t41.5 19.5q18 0 19 -20q-10 -131 -11 -299h435q0 63 4 145t4 117l4 6q31 4 52.5 11t49 20.5t41.5 19.5q18 0 19 -20q-10 -131 -11 -299h97q86 0 143 4l10 -15q-16 -41 -24 -84q-41 4 -148 4h-78v-258q0 -70 -3 -159.5t-3 -112.5q0 -158 68 -168q79 -13 161 16l25 -51 q-119 -76 -237 -75q-76 0 -128.5 51t-52.5 145q0 23 3.5 142.5t3.5 189.5v280z"></glyph>
      <glyph glyph-name="Q_u" unicode="Qu" d="M727 1257q-168 0 -289 -144t-121 -443q0 -281 141.5 -440.5t338.5 -159.5q180 0 291.5 148.5t111.5 416.5q0 311 -125 466.5t-348 155.5zM2234 188q-57 -88 -139 -148t-170 -60q-141 0 -204.5 81.5t-63.5 202.5v246q0 238 -19 369l4 6q37 -6 96.5 -6t96.5 6l4 -6 q-18 -123 -18 -369v-203q0 -129 35.5 -171t101.5 -42q72 0 150.5 64.5t129.5 150.5v201q0 233 -18 369l4 6q37 -6 96.5 -6t96.5 6l4 -6q-18 -123 -19 -369v-117q0 -207 35 -393l-4 -6q-41 6 -91 6q-24 0 -71 -6q-18 0 -18 6l-10 182zM1095 66q154 -99 388.5 -186t492.5 -120 v-12q-135 -72 -192 -117q-182 51 -328 105t-272 117t-258 146q-81 -19 -170 -19q-272 0 -461 180t-189 475q0 301 186.5 507t461.5 206q281 0 469 -187.5t188 -486.5q0 -204 -83.5 -363t-232.5 -245z"></glyph>
      <glyph glyph-name="f_f" unicode="ff" d="M203 788h-2q-94 0 -152 -4l-10 15q29 45 45 84q31 -4 119 -4v61q0 111 23.5 168t88.5 145q115 156 316 156q63 0 92 -18l2 -7q-25 -43 -57 -167l-23 -3q-39 72 -119 72q-84 0 -127 -60.5t-43 -150.5q0 -16 5.5 -81.5t5.5 -94.5v-20h405v102q0 111 23.5 168t89.5 145 q115 156 315 156q63 0 92 -18l2 -7q-25 -43 -57 -168l-23 -2q-39 72 -118 72q-84 0 -127 -60.5t-43 -150.5q0 -16 5 -102t5 -115v-20h88q57 0 143 4l11 -15q-16 -41 -25 -84q-41 4 -147 4h-70v-378q0 -272 20 -410l-4 -6q-29 6 -98 6l-100 -6l-2 6q20 129 20 410v378h-405 v-378q0 -272 20 -410l-4 -6q-29 6 -98 6l-101 -6l-2 6q20 129 21 410v378z"></glyph>
      <glyph glyph-name=".notdef" d="M102 1235v-1040l349 520zM164 102h696l-348 521zM573 715l349 -520v1040zM512 807l348 518h-696zM0 0v1430h1024v-1430h-1024z"></glyph>
      <glyph glyph-name=".null"></glyph>
      <glyph glyph-name="nonmarkingreturn"></glyph>
      <glyph glyph-name="space" unicode=" "></glyph>
      <glyph glyph-name="exclam" unicode="!" d="M231 1348q45 0 80 -39t35 -111q0 -76 -22.5 -205t-30.5 -190q-12 -96 -19.5 -183.5t-9.5 -134.5t-4 -55q-4 -41 -28.5 -41t-28.5 27l-10 145q-10 145 -21 242q-8 72 -29.5 193.5t-21.5 201.5q0 76 34.5 113t75.5 37zM117 90v8q27 76 110 111h9q84 -31 110 -111v-8 q-29 -90 -110 -110h-9q-49 10 -72.5 34.5t-37.5 75.5z"></glyph>
      <glyph glyph-name="quotedbl" unicode="&quot;" d="M440 874q-53 326 -53 345q0 37 31 69.5t74 32.5q72 0 71 -68l-67 -370zM182 872q-53 326 -53 345q0 37 30.5 69.5t73.5 32.5q72 0 72 -68l-67 -370z"></glyph>
      <glyph glyph-name="numbersign" unicode="#" d="M584 506l37 239h-240l-39 -239h242zM694 745l-41 -239h199l-16 -107h-195l-61 -370h-72l57 370h-239l-62 -370h-71l59 370h-197l15 107h198l39 239h-198l18 109h197l59 371h74l-62 -371h244l57 371h72l-59 -371h198l-16 -109h-197z"></glyph>
      <glyph glyph-name="dollar" unicode="$" d="M438 748l24 423h-3q-92 0 -147.5 -56t-55.5 -144q0 -56 30 -102.5t66.5 -72t85.5 -48.5zM502 541l-26 -476q96 8 161 65t65 157q0 57 -15 99.5t-46 71t-61.5 46.5t-77.5 37zM471 -19l-9 -172q-18 -10 -76 -10l10 181q-93 4 -169.5 26.5t-107.5 40.5t-31 21l-4 6 q31 127 39 186l18 2q10 -22 23.5 -42.5t29.5 -38.5t33.5 -34t37.5 -29t42 -23t45.5 -17.5t48.5 -10.5l27 503q-67 28 -116 57t-97 71t-73 98.5t-25 125.5q0 57 20.5 108.5t55 90t79.5 67t95 44t99 17.5l9 163q27 10 76 10l-10 -175q81 -6 142.5 -27t81.5 -39l21 -18l5 -6 q-29 -88 -37 -180l-21 -2q-33 73 -81.5 121t-115.5 66l-24 -444q46 -17 82 -32t79.5 -38.5t75 -51.5t59 -63t42 -80.5t14.5 -98.5q0 -166 -123 -270q-52 -44 -123 -70.5t-147 -32.5z"></glyph>
      <glyph glyph-name="percent" unicode="%" d="M946 182q0 -78 30 -111.5t68 -33.5q84 0 141.5 108.5t57.5 212.5q0 76 -31.5 105t-66.5 29q-76 0 -137.5 -104t-61.5 -206zM831 215q0 127 86.5 235.5t202.5 108.5q80 0 134.5 -45t54.5 -154q0 -131 -77 -259t-202 -128q-94 0 -146.5 73t-52.5 169zM797 1141 q90 0 186 27.5t141 88.5l70 -34l-897 -1250l-74 33l785 1094q-104 -41 -234 -41q-98 0 -174 45q6 -23 6 -53q0 -125 -77.5 -256t-202.5 -131q-94 0 -145.5 72.5t-51.5 164.5q0 129 86 238.5t201 109.5q43 0 86 -17.5t61 -37.5q115 -53 234 -53zM242 870q0 -78 30.5 -110.5 t67.5 -32.5q84 0 141.5 106.5t57.5 215.5q0 74 -30 103.5t-69 29.5q-76 0 -137 -105t-61 -207z"></glyph>
      <glyph glyph-name="ampersand" unicode="&amp;" d="M522 692q-147 -82 -198.5 -167t-51.5 -206q0 -258 244 -258q70 0 123 29t82 62.5t92 119.5q-228 301 -291 420zM600 842q96 63 153.5 139t57.5 133q0 70 -36 112t-97 42q-51 0 -103.5 -52.5t-52.5 -142.5q0 -104 78 -231zM895 393q186 276 213 492q20 -6 80 -6q68 0 88 6 q-31 -51 -164 -292t-160 -280l70 -94q45 -63 88 -96t70 -33q98 0 155 111l33 -17q-33 -102 -88 -153t-113 -51q-41 0 -69.5 5t-74.5 37.5t-91 94.5l-60 76q-78 -106 -162.5 -159.5t-207.5 -53.5q-180 0 -296 88t-116 272q0 111 92 212t295 216q-111 172 -110 301 q0 100 89 189.5t232 89.5q109 0 184.5 -69t75.5 -165q0 -82 -86 -180t-217 -174l8 -17q66 -112 242 -350z"></glyph>
      <glyph glyph-name="quotesingle" unicode="'" d="M162 872q-53 326 -53 345q0 37 30.5 69.5t73.5 32.5q72 0 72 -68l-68 -370z"></glyph>
      <glyph glyph-name="parenleft" unicode="(" d="M90 516q0 274 121 520t313 412l47 -37q-311 -350 -311 -895q0 -541 311 -899l-47 -35q-121 104 -208 231.5t-129 228.5t-66.5 213t-27.5 162t-3 99z"></glyph>
      <glyph glyph-name="parenright" unicode=")" d="M524 516q0 -274 -120.5 -520t-313.5 -412l-47 37q311 350 311 895q0 541 -311 899l47 35q121 -104 208 -231t129 -228.5t66.5 -213t27.5 -162t3 -99.5z"></glyph>
      <glyph glyph-name="asterisk" unicode="*" d="M406 1161q-35 8 -87 8q-166 0 -165 76q0 25 16 43.5t51 18.5q39 0 99.5 -45t97.5 -60q-4 41 -25.5 101.5t-21.5 87.5q0 33 17.5 56t43.5 23q68 0 68 -71q0 -29 -18.5 -99.5t-20.5 -99.5q39 16 98 61.5t96 45.5t53.5 -20.5t16.5 -41.5q0 -76 -141 -76q-63 0 -113 -8 q25 -27 72 -58.5t72.5 -57t25.5 -62.5q0 -27 -18.5 -43t-40.5 -16q-35 0 -58.5 32.5t-47 93t-40.5 87.5q-14 -27 -38.5 -90.5t-47 -93t-57.5 -29.5q-27 0 -43.5 17t-16.5 40q0 39 27 65.5t74 56t72 58.5z"></glyph>
      <glyph glyph-name="plus" unicode="+" d="M592 526h352v-100h-352v-356h-105v356h-352v100h352v357h105v-357z"></glyph>
      <glyph glyph-name="comma" unicode="," d="M98 90v8q27 76 111 111h8q131 -47 131 -215q0 -59 -15.5 -104.5t-52 -81t-62 -52t-83.5 -51.5q-27 23 -26 43q160 109 159 193q0 53 -59 53q-51 12 -75 29.5t-36 66.5z"></glyph>
      <glyph glyph-name="hyphen" unicode="-" d="M561 483h-463q-31 0 -30 35q0 25 16 50.5t35 25.5h469q29 0 28 -37q0 -18 -18.5 -46t-36.5 -28z"></glyph>
      <glyph glyph-name="period" unicode="." d="M111 90v8q27 76 110 111h8q84 -31 111 -111v-8q-29 -90 -111 -110h-8q-49 10 -72.5 34.5t-37.5 75.5z"></glyph>
      <glyph glyph-name="slash" unicode="/" d="M600 1323l-485 -1444h-84l485 1444h84z"></glyph>
      <glyph glyph-name="zero" unicode="0" d="M477 1169q-221 0 -221 -581q0 -63 3 -124t16.5 -138.5t36 -133t62.5 -94.5t95 -39q27 0 54.5 10.5t67.5 56.5t60 124q35 127 35 399q0 195 -34 320t-85 168q-37 32 -90 32zM467 -20q-182 0 -284.5 175t-102.5 437q0 291 118.5 474t278.5 183q117 0 195 -71 q190 -174 190 -545q0 -170 -39 -302t-100 -206t-127 -109.5t-129 -35.5z"></glyph>
      <glyph glyph-name="one" unicode="1" d="M668 387q0 -229 18 -387l-4 -6q-57 6 -98 6l-95 -6l-2 6q16 133 17 387v508q0 156 -37 156q-23 0 -107 -14.5t-127 -18.5l-12 59q86 27 237.5 90.5t211.5 81.5q14 0 14 -10q-16 -115 -16 -332v-520z"></glyph>
      <glyph glyph-name="two" unicode="2" d="M414 1133q-98 0 -158 -48q-19 -15 -33.5 -34t-20 -28.5t-19 -41.5t-17.5 -41l-27 2l-45 141q28 37 70.5 71.5t119.5 64.5t163 30q112 0 194 -42t123.5 -116.5t41.5 -171.5q0 -149 -148 -350q-63 -85 -127.5 -159t-100.5 -110t-104 -101q-36 -35 -36 -56q0 -3 0.5 -5 t2.5 -5q56 4 167 4q190 0 375 17q-10 -41 -10 -97q0 -24 6 -67q-244 10 -356 10q-10 0 -388 -10q-21 34 -20 80q1 15 3 26q4 4 71 66.5t103.5 99t100 101.5t115 128t92.5 125q78 117 78 275q0 104 -66 173t-150 69z"></glyph>
      <glyph glyph-name="three" unicode="3" d="M428 59q35 0 75 12.5t86 41t76.5 91t30.5 148.5q0 129 -80 197q-80 66 -200 65q-61 0 -86 -4v90q43 -6 76 -6q111 0 169 58q78 74 78 200q0 94 -53 155.5t-117 61.5q-90 0 -144 -42t-93 -132l-31 2l-43 131l6 7q131 115 324 114q150 0 239.5 -76.5t89.5 -189.5 q0 -119 -75.5 -206t-165.5 -107v-11q121 -10 201.5 -91t80.5 -199q0 -127 -77.5 -219.5t-176 -131t-194.5 -38.5q-188 0 -305 98l-6 6l45 154l30 2q29 -59 40.5 -81t39 -51.5t64.5 -39t96 -9.5z"></glyph>
      <glyph glyph-name="four" unicode="4" d="M586 303h-422q-121 0 -121 41q0 33 27 80q80 135 256 405.5t270 399.5l8 8q37 -8 70 -8q16 0 43.5 4t36.5 4q4 0 4 -8q-12 -113 -13 -303v-520h132q31 0 30 -33q0 -18 -19.5 -44t-39.5 -26h-103q0 -125 13 -303q0 -6 -4 -6q-8 0 -38 3t-48 3l-97 -6l-2 6q17 139 17 303z M586 1049l-416 -643h416v643z"></glyph>
      <glyph glyph-name="five" unicode="5" d="M414 -20q-178 0 -310 114l-8 6l45 164l29 2q6 -10 23.5 -43t22.5 -42t21.5 -32.5t24.5 -30.5t26.5 -22.5t36 -19.5t41 -9.5t52.5 -5.5q104 0 168.5 83t64.5 223q0 162 -65.5 245.5t-169.5 83.5q-96 0 -254 -63l-15 5l66 603q139 -12 233 -12q170 0 336 20l15 -6l-33 -139 q-100 -12 -215 -12q-123 0 -260 18l-43 -362q84 31 223 30q166 0 264 -110.5t98 -266.5q0 -182 -117.5 -301.5t-299.5 -119.5z"></glyph>
      <glyph glyph-name="six" unicode="6" d="M260 567q-2 -20 -2 -75q0 -129 24.5 -220.5t67.5 -135.5t84 -62.5t88 -18.5q182 0 183 299q0 45 -9.5 90t-32 95.5t-72.5 81t-124 30.5q-125 0 -207 -84zM819 1194q-227 -23 -360 -152q-162 -158 -195 -415q37 45 109.5 75.5t136.5 30.5q113 0 192.5 -42t115.5 -105.5 t51.5 -116.5t15.5 -100q0 -61 -19.5 -124t-60.5 -124.5t-120 -100t-185 -38.5q-68 0 -131.5 21.5t-129 73.5t-105.5 160.5t-40 260.5q0 324 219 542q102 104 220 152.5t280 58.5z"></glyph>
      <glyph glyph-name="seven" unicode="7" d="M707 1075q-371 12 -578 -18q10 78 10 100q0 10 -10 86q102 -14 573 -14q70 0 132 20l34 -20q-221 -541 -458 -1247l-150 -9l-6 13q129 288 453 1089z"></glyph>
      <glyph glyph-name="eight" unicode="8" d="M481 1182q-88 0 -139 -50.5t-51 -125.5q0 -129 143 -224l64 -37q61 43 113.5 110t52.5 140q0 80 -44.5 133.5t-138.5 53.5zM815 993q0 -47 -22.5 -92t-65.5 -85t-74.5 -64.5t-79.5 -55.5l125 -82q178 -117 179 -282q0 -129 -113 -239.5t-301 -110.5q-170 0 -276.5 82.5 t-106.5 234.5q0 127 135 246q66 57 143 117l-41 22q-180 104 -180 285q0 119 100.5 199.5t256.5 80.5q150 0 235.5 -71.5t85.5 -184.5zM467 49q92 0 166 53.5t74 186.5q0 154 -181 266l-94 59q-193 -127 -192 -315q0 -125 70.5 -187.5t156.5 -62.5z"></glyph>
      <glyph glyph-name="nine" unicode="9" d="M682 662q2 20 2 75q0 129 -24.5 220.5t-67.5 135.5t-84 62.5t-88 18.5q-182 0 -182 -300q0 -45 9 -90t31.5 -95t72.5 -80.5t124 -30.5q125 0 207 84zM123 35q227 23 360 151q162 158 195 416q-37 -45 -109.5 -75.5t-136.5 -30.5q-113 0 -192.5 42t-115.5 105.5 t-51.5 116.5t-15.5 100q0 61 19.5 124t60.5 124t120 100t185 39q68 0 131.5 -21.5t129 -73.5t105.5 -160.5t40 -260.5q0 -324 -219 -543q-102 -104 -220 -152t-280 -59z"></glyph>
      <glyph glyph-name="colon" unicode=":" d="M125 729v8q27 76 111 111h8q84 -31 110 -111v-8q-29 -90 -110 -111h-8q-49 10 -73 35t-38 76zM125 190v9q27 76 111 110h8q84 -31 110 -110v-9q-29 -90 -110 -110h-8q-49 10 -73 34.5t-38 75.5z"></glyph>
      <glyph glyph-name="semicolon" unicode=";" d="M104 729v8q27 76 111 111h8q84 -31 111 -111v-8q-29 -90 -111 -111h-8q-49 10 -73 35t-38 76zM98 90v8q27 76 111 111h8q131 -47 131 -215q0 -59 -15.5 -104.5t-52 -81t-62 -52t-83.5 -51.5q-27 23 -26 43q160 109 159 193q0 53 -59 53q-51 12 -75 29.5t-36 66.5z"></glyph>
      <glyph glyph-name="less" unicode="&lt;" d="M250 489l649 -237v-102l-799 290v99l799 288v-102z"></glyph>
      <glyph glyph-name="equal" unicode="=" d="M944 651v-100h-809v100h809zM944 395v-100h-809v100h809z"></glyph>
      <glyph glyph-name="greater" unicode="&gt;" d="M750 483l-650 238v102l799 -291v-98l-799 -289v103z"></glyph>
      <glyph glyph-name="question" unicode="?" d="M399 1268q-141 0 -252 -193l-26 2l-33 137l6 9q152 127 324 127q156 0 247 -84t91 -226q0 -76 -39 -142.5t-76 -99t-102 -79.5q-86 -63 -107 -103q-37 -72 -37 -149v-90q0 -20 -26.5 -20.5t-26.5 20.5v94q0 59 5 100t38 107.5t94 122.5q66 61 94.5 111.5t28.5 119.5 q0 100 -57.5 168t-145.5 68zM254 90v8q27 76 111 111h8q84 -31 110 -111v-8q-29 -90 -110 -110h-8q-49 10 -73 34.5t-38 75.5z"></glyph>
      <glyph glyph-name="at" unicode="@" d="M1165 647q0 57 -37.5 93t-95.5 36q-35 0 -89 -19.5t-95 -62.5q-139 -139 -139 -362q0 -188 159 -189q53 0 121 77t115 190q61 147 61 237zM1194 152q0 -25 23 -25q168 0 253.5 97.5t85.5 338.5q0 152 -59 276t-153.5 197.5t-199 113.5t-204.5 40q-121 0 -234.5 -42 t-209 -123t-153.5 -219t-58 -312q0 -98 19.5 -196.5t69.5 -200t124.5 -178.5t196.5 -126t274 -49q242 0 411 135l27 -37q-109 -82 -213 -124t-264 -42q-360 0 -584.5 223.5t-224.5 557.5q0 330 246.5 562t593.5 232q328 0 542.5 -192.5t214.5 -480.5q0 -94 -30.5 -181.5 t-95 -166t-184.5 -127t-280 -48.5q-74 0 -73 84q0 33 30 129l-4 2q-63 -106 -138 -158.5t-134 -52.5q-72 0 -125 28t-77.5 70t-36 80.5t-11.5 75.5q0 211 152.5 369t324.5 158q51 0 97.5 -24.5t60.5 -63.5l10 49l109 26l30 -10l-122 -528q-27 -119 -27 -137z"></glyph>
      <glyph glyph-name="A" unicode="A" d="M834 564q-44 115 -95.5 241t-111.5 264h-4l-216 -504q24 0 102 -2t112 -2q87 0 213 3zM367 468q-59 -145 -103 -265t-67 -209q-25 6 -93 6q-47 0 -71 -6q348 764 604 1354h57q70 -166 198 -483.5t223 -549t140 -321.5q-35 6 -122 6q-68 0 -103 -6q-4 14 -9.5 32.5t-15 50 t-22.5 71t-29 87t-37.5 108.5t-45.5 125q-67 2 -127 2.5t-113 0.5q-117 0 -264 -3z"></glyph>
      <glyph glyph-name="B" unicode="B" d="M389 1145v-385h160q137 0 212 51t75 174q0 141 -77 197.5t-184 56.5q-119 0 -152.5 -19.5t-33.5 -74.5zM389 672v-492q0 -51 46 -74.5t153 -23.5q203 0 273.5 66.5t70.5 189.5q0 145 -90 239.5t-262 94.5h-191zM301 1321q55 0 141 3t119 3q109 0 193 -20.5t132 -51 t77.5 -74.5t40 -85t10.5 -86q0 -82 -54.5 -158t-136.5 -115q311 -90 312 -360q0 -72 -24 -135.5t-77 -122t-157.5 -92t-249.5 -33.5q-98 0 -183.5 3t-142.5 3l-106 -6l-2 6q20 139 20 410v501q0 264 -20 410l4 6q34 -6 104 -6z"></glyph>
      <glyph glyph-name="C" unicode="C" d="M778 1348q111 0 222.5 -22.5t167.5 -46.5l57 -24l4 -6q-35 -147 -41 -227l-21 -2q-115 231 -417 231q-68 0 -139.5 -31.5t-139.5 -95t-111 -178.5t-43 -262q0 -156 50.5 -289t160 -222t260.5 -89q141 0 233.5 45t203.5 166l49 -39q-211 -276 -504 -276q-211 0 -365.5 99 t-226.5 247.5t-72 318.5q0 295 203 499t469 204z"></glyph>
      <glyph glyph-name="D" unicode="D" d="M389 168q0 -51 39 -66.5t184 -15.5q119 0 206 20.5t163 71.5t116 152.5t40 251.5q0 127 -29 236.5t-92.5 207.5t-179 154.5t-275.5 56.5q-86 0 -129 -16.5t-43 -65.5v-987zM301 1321q66 0 169 3t169 3q295 0 502 -204.5t207 -491.5q0 -145 -43 -259t-110 -182.5 t-158 -113.5t-179 -62.5t-182 -17.5q-115 0 -213 2t-162 2l-106 -6l-2 6q20 139 20 410v501q0 264 -20 410l4 6q34 -6 104 -6z"></glyph>
      <glyph glyph-name="E" unicode="E" d="M389 410q0 -240 17 -295q123 0 267 6t227 12l83 6l4 -8q-4 -33 -4 -68q0 -6 4 -63l-4 -6q-49 6 -123 6h-559l-106 -6l-2 6q20 139 20 410v501q0 264 -20 410l4 6q35 -6 104 -6h539q74 0 123 6l4 -6q-4 -57 -4 -77.5t4 -53.5l-4 -8q-283 25 -557 24q-16 -55 -17 -295v-159 q215 0 457 20l6 -6q-6 -29 -6 -65.5t6 -65.5l-6 -6q-203 20 -457 20v-239z"></glyph>
      <glyph glyph-name="F" unicode="F" d="M834 1321q80 0 129 6l4 -6q-4 -57 -4 -70q0 -29 4 -61l-4 -8q-283 25 -557 24q-16 -55 -17 -295v-159q215 0 457 20l6 -6q-6 -29 -6 -65.5t6 -65.5l-6 -6q-203 20 -457 20v-239q0 -264 21 -410l-4 -6q-35 6 -105 6l-106 -6l-2 6q20 139 20 410v501q0 264 -20 410l4 6 q35 -6 104 -6h533z"></glyph>
      <glyph glyph-name="G" unicode="G" d="M1118 240q-6 283 -20 389l4 6q35 -6 104 -6l107 6l2 -6q-20 -135 -21 -348v-13q0 -74 21 -98v-6q-219 -184 -545 -184q-299 0 -481.5 196.5t-182.5 472.5q0 164 61.5 299t164 220t229.5 132.5t260 47.5q111 0 227.5 -22.5t178.5 -46.5l61 -24l4 -6q-33 -139 -41 -248 l-20 -2q-70 117 -185.5 184.5t-252.5 67.5q-211 0 -343.5 -157.5t-132.5 -423.5q0 -106 28 -208t84 -191t156.5 -143t231.5 -54q219 0 301 78v88z"></glyph>
      <glyph glyph-name="H" unicode="H" d="M1098 911q0 264 -21 410l4 6q37 -6 105 -6q70 0 106 6l2 -6q-20 -135 -20 -410v-501q0 -264 20 -410l-4 -6q-37 6 -104 6q-70 0 -107 -6l-2 6q20 139 21 410v247h-709v-247q0 -264 21 -410l-4 -6q-37 6 -105 6q-70 0 -106 -6l-2 6q20 139 20 410v501q0 264 -20 410l4 6 q37 -6 104 -6q70 0 107 6l2 -6q-20 -135 -21 -410v-163h709v163z"></glyph>
      <glyph glyph-name="I" unicode="I" d="M213 911q0 264 -20 410l4 6q37 -6 104.5 -6t104.5 6l4 -6q-20 -135 -21 -410v-501q0 -264 21 -410l-4 -6q-37 6 -105 6t-104 -6l-4 6q20 139 20 410v501z"></glyph>
      <glyph glyph-name="J" unicode="J" d="M287 195v716q0 264 -21 410l4 6q37 -6 105 -6q70 0 106 6l2 -6q-20 -135 -20 -410v-671q0 -174 -23.5 -252t-105.5 -185q-121 -156 -324 -155q-63 0 -92 18l-2 6q25 43 57 168l23 2q39 -72 119 -71q57 0 94 37.5t52 109.5t20.5 131.5t5.5 145.5z"></glyph>
      <glyph glyph-name="K" unicode="K" d="M213 911q0 264 -20 410l4 6q37 -6 104.5 -6t104.5 6l4 -6q-20 -135 -21 -410v-206q27 3 45 18q240 209 584 604q27 -6 100 -6q72 0 105 6q-422 -371 -623 -602v-4l643 -727q-39 6 -127 6q-92 0 -127 -6q-449 553 -561 665q-5 4 -12.5 7t-14 4.5t-12.5 2.5v-263 q0 -264 21 -410l-4 -6q-37 6 -105 6t-104 -6l-4 6q20 139 20 410v501z"></glyph>
      <glyph glyph-name="L" unicode="L" d="M391 911v-501q0 -229 17 -285q123 0 267 11t227 23l83 11l4 -8q-4 -33 -4 -72q0 -33 4 -90l-4 -6q-49 6 -123 6h-559l-106 -6l-2 6q20 139 20 410v501q0 264 -20 410l4 6q37 -6 104 -6q70 0 107 6l2 -6q-21 -136 -21 -410z"></glyph>
      <glyph glyph-name="M" unicode="M" d="M395 1356h56q55 -113 119 -261t112 -261.5t114 -256.5t131 -262l529 1041h45q94 -815 172 -1362q-31 6 -108 6q-70 0 -101 -6q-54 651 -93 974l-7 1q-268 -496 -475 -969h-39q-34 72 -71.5 158t-68.5 161.5t-68 163t-70 164.5t-73 164t-79 164h-9q-21 -132 -51.5 -331.5 t-58 -381t-41.5 -268.5q-23 6 -61 6q-45 0 -68 -6q166 799 264 1362z"></glyph>
      <glyph glyph-name="N" unicode="N" d="M221 1321l4 6q16 -6 86 -6l29 4l702 -909q82 -106 97 -113t20 19q3 15 4 43v546q0 264 -20 410l4 6q37 -6 71.5 -6t71.5 6l4 -6q-12 -160 -19 -335t-9 -290.5t-6.5 -328.5t-6.5 -324q-4 -63 -39 -63q-51 0 -88 49l-714 903q-31 41 -45.5 56.5t-23.5 10t-10 -26t-1 -73.5 v-489q0 -264 20 -410l-4 -6q-37 6 -71.5 6t-71.5 -6l-4 6q25 238 29.5 637t-9.5 684z"></glyph>
      <glyph glyph-name="O" unicode="O" d="M727 1257q-168 0 -289 -144t-121 -443q0 -281 141.5 -440.5t338.5 -159.5q180 0 291.5 148.5t111.5 416.5q0 311 -125 466.5t-348 155.5zM1411 674q0 -307 -181 -500.5t-474 -193.5q-272 0 -461 180t-189 475q0 301 186.5 507t461.5 206q281 0 469 -187.5t188 -486.5z "></glyph>
      <glyph glyph-name="P" unicode="P" d="M389 1157v-483q39 -20 162 -21q158 0 235.5 71t77.5 241q0 88 -24.5 146t-69.5 87t-91 39t-106 10q-106 0 -145 -21.5t-39 -68.5zM213 911q0 264 -20 410l4 6q37 -6 104 -6q31 0 145.5 7t141.5 7q135 0 233.5 -33.5t147.5 -90t71.5 -115t22.5 -121.5q0 -70 -27.5 -138.5 t-83 -131t-157 -101.5t-234.5 -39q-109 0 -172 21v-176q0 -264 21 -410l-4 -6q-37 6 -105 6t-104 -6l-4 6q20 139 20 410v501z"></glyph>
      <glyph glyph-name="Q" unicode="Q" d="M727 1257q-168 0 -289 -144t-121 -443q0 -281 141.5 -440.5t338.5 -159.5q180 0 291.5 148.5t111.5 416.5q0 311 -125 466.5t-348 155.5zM1148 101q9 -5 119.5 -71t200.5 -109.5t191 -78.5v-12q-135 -72 -193 -117q-92 52 -239 161q-100 73 -236 144q-36 -13 -74 -21.5 t-78.5 -12.5t-82.5 -4q-272 0 -461 180t-189 475q0 301 186.5 507t461.5 206q281 0 469 -187.5t188 -486.5q0 -185 -69 -333.5t-194 -239.5z"></glyph>
      <glyph glyph-name="R" unicode="R" d="M389 586v-176q0 -264 21 -410l-4 -6q-37 6 -105 6t-104 -6l-4 6q20 139 20 410v501q0 264 -20 410l4 6q37 -6 104 -6q33 0 142.5 7t134.5 7q279 0 383 -98q109 -102 108 -256q0 -227 -205 -330q-45 -23 -124 -39q48 -64 214 -305.5t224 -306.5l-4 -6q-41 6 -123 6 q-84 0 -123 -6q-37 111 -195 366q-10 16 -36.5 60t-39.5 64.5t-35.5 52t-42.5 55.5q-86 -6 -190 -6zM580 1247q-135 0 -163 -14t-28 -76v-489h119q168 0 266 68.5t98 242.5q0 78 -27.5 134t-73.5 84t-92 39t-99 11z"></glyph>
      <glyph glyph-name="S" unicode="S" d="M496 70q96 0 167.5 64.5t71.5 174.5q0 119 -61.5 183.5t-177.5 113.5q-76 31 -129.5 61.5t-108.5 77t-85 108.5t-30 140q0 106 64.5 192.5t161.5 127.5q84 35 176 35q106 0 187 -22.5t110 -46.5l28 -24l4 -6q-39 -129 -47 -205l-20 -2q-41 96 -118 155.5t-161 59.5 q-78 0 -125 -24q-39 -20 -66.5 -74.5t-27.5 -109.5q0 -59 22.5 -106.5t65.5 -78t77 -48t85 -36.5q367 -137 367 -409q0 -176 -127 -283.5t-320 -107.5q-106 0 -199.5 22.5t-133.5 45.5l-40 24l-4 6q41 152 48 211l20 2q47 -90 143.5 -155.5t182.5 -65.5z"></glyph>
      <glyph glyph-name="T" unicode="T" d="M465 911q0 240 -16 295q-123 0 -226.5 -7t-145.5 -14l-42 -7l-4 8q6 47 0 135l4 6q49 -6 123 -6h790q74 0 123 6l4 -6q-6 -88 0 -135l-4 -8q-139 29 -414 28q-16 -55 -16 -295v-501q0 -264 21 -410l-5 -6q-37 6 -104.5 6t-103.5 -6l-5 6q20 139 21 410v501z"></glyph>
      <glyph glyph-name="U" unicode="U" d="M1114 911q0 264 -20 410l4 6q37 -6 71.5 -6t71.5 6l4 -6q-20 -135 -20 -410v-307q0 -299 -120 -461.5t-415 -162.5q-80 0 -154.5 21.5t-151.5 72.5t-124 156.5t-47 252.5v428q0 264 -20 410l4 6q37 -6 104.5 -6t104.5 6l4 -6q-20 -135 -21 -410v-360q0 -457 344 -457 q100 0 172 29t112 71t62.5 109.5t28.5 125.5t6 138v344z"></glyph>
      <glyph glyph-name="V" unicode="V" d="M664 271q12 27 50 115.5t54.5 126.5t52.5 122t55 131.5t49.5 122t49.5 125.5t41 111t38 109.5t27 92.5q35 -6 93 -6q45 0 81 6q-397 -872 -604 -1347h-57q-68 162 -197 480t-224 546.5t-140 320.5q57 -6 123 -6q55 0 112 6q128 -446 391 -1056h5z"></glyph>
      <glyph glyph-name="W" unicode="W" d="M1319 270q6 14 50 114.5t55.5 128.5t51.5 121t56 133t49 120t50.5 127t41 109.5t37.5 111.5t27 92q25 -6 102 -6q47 0 72 6q-397 -872 -604 -1347h-58q-120 337 -269 740l-329 -740h-57q-68 162 -197 480t-224 546.5t-140 320.5q35 -6 123 -6q68 0 102 6 q121 -426 404 -1075h4q204 474 260 612q-39 104 -71.5 190.5t-60 158t-44.5 114.5q35 -6 122 -6q78 0 113 6q55 -250 330 -1057h4z"></glyph>
      <glyph glyph-name="X" unicode="X" d="M1155 -6q-37 6 -119 6t-118 -6q-31 59 -63.5 115.5t-72.5 119.5t-67 104t-78.5 118t-74.5 112q-197 -301 -343 -569q-23 6 -86 6t-86 -6l453 663l-443 670q35 -6 115 -6t117 6q21 -43 61.5 -111t70.5 -114.5t102 -155.5t95 -146q137 198 195 289t137 238q23 -6 86.5 -6 t85.5 6q-27 -38 -105.5 -145t-166.5 -230t-171 -245q326 -501 476 -713z"></glyph>
      <glyph glyph-name="Y" unicode="Y" d="M682 584q4 -475 14 -590q-37 6 -102.5 6t-101.5 -6q14 158 14 569q-61 104 -237.5 390t-235.5 374q51 -6 117 -6q63 0 116 6q49 -96 359 -631q229 360 358 631q37 -6 86 -6q45 0 86 6q-63 -98 -161.5 -246.5t-140.5 -213t-91 -144.5t-80 -139z"></glyph>
      <glyph glyph-name="Z" unicode="Z" d="M383 111q119 0 313.5 10t329.5 21l135 12l4 -7q-4 -33 -4 -67q0 -23 4 -80l-4 -6q-49 6 -145 6h-744l-178 -6l-6 8q12 16 30.5 44t22.5 32l756 1108q16 25 -6 24q-113 0 -225.5 -7t-257 -18t-244.5 -18l-4 7q4 33 4 67q0 23 -4 80l4 6q49 -6 125 -6h622q166 0 258 12 q12 0 13 -12q0 -25 -62 -111l-727 -1063q-10 -13 -10 -36z"></glyph>
      <glyph glyph-name="bracketleft" unicode="[" d="M225 -393v1833h441v-62q-111 -8 -166.5 -18t-88 -38t-39.5 -63.5t-7 -109.5v-1251q0 -74 6 -109t38.5 -63.5t89 -40t167.5 -19.5v-59h-441z"></glyph>
      <glyph glyph-name="backslash" unicode="\" d="M123 1430l471 -1528h-100l-471 1528h100z"></glyph>
      <glyph glyph-name="bracketright" unicode="]" d="M514 1440v-1833h-440v61q111 8 166 18.5t87.5 38t40 63.5t7.5 110v1251q0 74 -6.5 108.5t-39 63.5t-89 40t-166.5 19v60h440z"></glyph>
      <glyph glyph-name="asciicircum" unicode="^" d="M530 1214l-208 -505h-93l260 622h86l259 -622h-93z"></glyph>
      <glyph glyph-name="underscore" unicode="_" d="M987 -225v-90h-977v90h977z"></glyph>
      <glyph glyph-name="grave" unicode="`" d="M365 1432l143 -258q12 -25 12 -50q0 -8 -9 -15t-22 -7q-16 0 -59 41l-233 223l4 23q63 47 133 47q15 0 31 -4z"></glyph>
      <glyph glyph-name="a" unicode="a" d="M635 461l-174 -47q-113 -31 -158 -81t-45 -124q0 -49 42 -87t110 -38q82 0 188 80q29 20 29 53zM635 98h-8q-82 -70 -138.5 -94t-140.5 -24q-119 0 -187.5 55t-68.5 166q0 104 91 183t249 114l191 43q14 4 14 24q0 66 -14.5 114t-33 71.5t-49 37t-51 16.5t-49.5 3 q-117 0 -225 -174l-27 2l-34 137l6 8q141 119 301 119q338 0 338 -332q0 -7 -1 -49.5t-2 -91t-2 -98.5t-1 -70q0 -129 34 -160q17 -15 60 -15q25 0 55 11l16 -51q-60 -63 -163 -63q-58 0 -100.5 30t-59.5 88z"></glyph>
      <glyph glyph-name="b" unicode="b" d="M332 166q33 -41 84 -73t96 -32q141 0 205.5 100.5t64.5 297.5q0 180 -66.5 269t-168.5 89q-59 0 -104.5 -27.5t-110.5 -93.5v-530zM332 1024v-227q94 102 256 102q154 0 265.5 -121t111.5 -303q0 -242 -132.5 -368.5t-308.5 -126.5q-125 0 -241 100q-33 -61 -68 -100 q-41 0 -57 16q10 53 10 154v837q0 258 -25 395l4 7q92 6 179 41q18 0 18 -21q-12 -160 -12 -385z"></glyph>
      <glyph glyph-name="c" unicode="c" d="M512 817q-106 0 -180 -98t-74 -262q0 -174 75 -274.5t191 -100.5q123 0 219 86h9l39 -43q-115 -145 -302 -145q-188 0 -299.5 126.5t-111.5 339.5q0 199 133 326t303 127q162 0 272 -57l5 -6l-48 -168l-26 -2q-88 151 -205 151z"></glyph>
      <glyph glyph-name="d" unicode="d" d="M739 231v467q-39 61 -82 90t-112 29q-43 0 -84 -15.5t-84 -51t-68.5 -112.5t-25.5 -185q0 -182 57 -274.5t147 -92.5q137 0 252 145zM739 119q-109 -139 -264 -139q-164 0 -267.5 132t-103.5 324q0 207 130.5 335t332.5 128q92 0 172 -45v133q0 293 -18 395l4 7 q92 6 178 41q18 0 19 -21q-18 -227 -19 -385v-631q0 -207 35 -393l-4 -6q-41 6 -91 6q-24 0 -71 -6q-18 0 -18 6l-11 119h-4z"></glyph>
      <glyph glyph-name="e" unicode="e" d="M256 559h377q29 0 29 29q0 106 -54.5 167.5t-118.5 61.5q-23 0 -52 -11t-67 -37t-70 -81t-44 -129zM803 213l41 -51q-59 -82 -153.5 -132t-203.5 -50q-213 0 -325 135q-92 111 -92 313q0 213 130 342t289 129q184 0 269.5 -116.5t85.5 -270.5q0 -35 -37 -35h-557 q0 -182 49 -260q74 -117 223 -117q177 0 281 113z"></glyph>
      <glyph glyph-name="f" unicode="f" d="M203 879v79q0 172 112 314q57 74 148.5 116t187.5 42q59 0 92 -21l2 -6q-31 -61 -57 -168l-22 -2q-39 72 -119 72q-88 0 -139.5 -52.5t-51.5 -138.5q0 -14 5.5 -95t5.5 -122v-18h88q57 0 143 4l10 -15q-16 -41 -24 -84q-41 4 -148 4h-69v-380q0 -270 20 -408l-4 -6 q-37 6 -98.5 6t-98.5 -6l-4 6q20 129 21 408v380h-2q-94 0 -152 -4l-10 15q29 45 45 84q31 -4 119 -4z"></glyph>
      <glyph glyph-name="g" unicode="g" d="M207 -213q0 -63 54 -108.5t112.5 -61.5t101.5 -16q141 0 242.5 51t101.5 141q0 100 -80 148q-59 35 -217 34q-10 0 -78.5 -3t-103.5 -3q-55 -31 -94 -82t-39 -100zM799 592q0 -135 -88 -224t-252 -89q-98 0 -152 28q-61 -53 -61 -114q0 -59 31.5 -78t87.5 -19q2 0 59 4 q78 10 170 11q209 0 289 -68q86 -74 86 -203q0 -104 -84 -181t-206 -111.5t-261 -34.5q-84 0 -159 19t-134 74.5t-59 139.5q0 63 47 135q25 20 167 100q4 2 7 4q-79 14 -117.5 61.5t-38.5 115.5q0 82 127 170q-145 84 -145 256q0 143 107.5 227t240.5 84q69 0 125 -18 q87 5 189 20.5t134 18.5l6 -7q-6 -29 -6 -53t6 -53l-6 -6q-191 20 -213 21q103 -68 103 -230zM639 582q0 240 -186 239q-88 0 -134.5 -59.5t-46.5 -163.5q0 -119 45 -178.5t152 -59.5q92 0 131 58t39 164z"></glyph>
      <glyph glyph-name="h" unicode="h" d="M348 721l4 -6q158 184 355 184q135 0 194.5 -80t59.5 -244q0 -33 -2.5 -103.5t-2.5 -102.5q0 -238 19 -369l-4 -6q-37 6 -96.5 6t-96.5 -6l-4 6q18 125 19 369v200q0 121 -33 164t-115 43q-61 0 -143 -41t-154 -127v-239q0 -227 19 -369l-5 -6q-37 6 -96 6t-96 -6l-4 6 q18 133 18 369v616q0 295 -18 397l4 7q92 6 178 41q18 0 19 -21q-18 -236 -19 -383v-305z"></glyph>
      <glyph glyph-name="i" unicode="i" d="M164 1223q0 41 31.5 72.5t72.5 31.5t73 -31.5t32 -72.5t-32 -73t-73 -32t-72.5 32t-31.5 73zM184 481q0 272 -18 398l4 6q88 -6 178 2q12 0 15.5 -3t3.5 -18q-18 -172 -19 -352v-145q0 -223 19 -369l-5 -6q-37 6 -96 6t-96 -6l-4 6q18 137 18 369v112z"></glyph>
      <glyph glyph-name="j" unicode="j" d="M184 1223q0 41 32 72.5t73 31.5t72.5 -31.5t31.5 -72.5t-31.5 -73t-72.5 -32t-73 32t-32 73zM373 514v-268q0 -223 -20.5 -334t-69.5 -188q-106 -166 -277 -166q-59 0 -88 18l-2 6q8 31 8 182l33 9q51 -92 123 -92q78 0 103.5 133t25.5 383v284q0 272 -19 398l5 6 q88 -6 178 2q12 0 15 -3t3 -18q-18 -172 -18 -352z"></glyph>
      <glyph glyph-name="k" unicode="k" d="M184 410v577q0 293 -18 395l4 7q92 6 178 41q18 0 19 -21q-18 -248 -19 -385v-532q23 2 47.5 9.5t42.5 20.5q63 49 161.5 155.5t162.5 201.5q168 0 207 6l4 -6q-201 -170 -414 -392q88 -104 163 -185t161 -166t133 -136l-4 -6q-31 6 -123 6q-82 0 -135 -6 q-90 129 -121 173t-84 108.5t-117 132.5q-23 20 -84 22v-20q0 -274 19 -410l-5 -6q-37 6 -96 6t-96 -6l-4 6q18 131 18 410z"></glyph>
      <glyph glyph-name="l" unicode="l" d="M184 410v577q0 293 -18 395l4 7q92 6 178 41q18 0 19 -21q-18 -248 -19 -385v-614q0 -274 19 -410l-5 -6q-37 6 -96 6t-96 -6l-4 6q18 131 18 410z"></glyph>
      <glyph glyph-name="m" unicode="m" d="M332 721l6 -6q174 184 344 184q86 0 144.5 -44t72.5 -118q154 162 346 162q152 0 203 -83t51 -243v-204q0 -238 19 -369l-5 -6q-37 6 -96 6t-96 -6l-4 6q18 125 18 369v225q0 100 -39 141t-125 41q-150 0 -260 -123q2 -25 2 -78v-206q0 -238 19 -369l-4 -6q-37 6 -96.5 6 t-96.5 -6l-4 6q18 125 19 369v225q0 182 -136 182q-55 0 -133 -44t-149 -116v-247q0 -238 18 -369l-4 -6q-37 6 -96.5 6t-95.5 -6l-4 6q18 125 18 369v112q0 283 -18 398l4 6q90 -8 165 6q12 0 13 -21v-149z"></glyph>
      <glyph glyph-name="n" unicode="n" d="M942 369q0 -233 19 -369l-5 -6q-37 6 -96 6t-96 -6l-4 6q18 137 18 369v200q0 121 -32.5 164t-114.5 43q-63 0 -144 -41t-153 -127v-239q0 -238 18 -369l-4 -6q-37 6 -96 6t-96 -6l-4 6q18 125 18 369v112q0 283 -18 398l4 6q90 -8 166 6q12 0 12 -21v-149l4 -6 q158 184 354 184q135 0 194.5 -80t59.5 -244q0 -33 -2 -103t-2 -103z"></glyph>
      <glyph glyph-name="o" unicode="o" d="M78 420q0 217 120.5 348t321.5 131q205 0 315.5 -124t110.5 -337q0 -205 -116.5 -331.5t-317.5 -126.5q-199 0 -316.5 125t-117.5 315zM506 817q-90 0 -148.5 -55t-79 -132t-20.5 -175q0 -92 20.5 -174t86 -151t165.5 -69q102 0 169 96.5t67 243.5q0 207 -54 311.5 t-206 104.5z"></glyph>
      <glyph glyph-name="p" unicode="p" d="M332 602v-448q78 -92 190 -93q78 0 133.5 35t83 95.5t38.5 123t11 131.5q0 358 -210 359q-61 0 -137 -61.5t-109 -141.5zM332 721l4 -6q121 184 276 184q164 0 260.5 -126t96.5 -300q0 -219 -117 -356t-317 -137q-119 0 -203 45v-91q0 -264 18 -409l-4 -6q-37 6 -96.5 6 t-95.5 -6l-4 6q18 137 18 409v547q0 283 -18 398l4 6q90 -8 165 6q12 0 13 -21v-149z"></glyph>
      <glyph glyph-name="q" unicode="q" d="M731 770q-57 47 -192 47q-115 0 -186.5 -97t-71.5 -255q0 -211 78.5 -303t185.5 -92q35 0 95 18t97 47v344zM750 885q63 -10 165 0l5 -6q-18 -115 -19 -398v-547q0 -287 19 -409l-5 -6q-27 6 -96 6l-96 -6l-4 6q18 117 18 409v113q-29 -25 -95.5 -46t-145.5 -21 q-133 0 -226.5 72.5t-131.5 174t-38 215.5q0 201 123 329t303 128q138 0 224 -14z"></glyph>
      <glyph glyph-name="r" unicode="r" d="M342 684l6 -4q72 123 126 171t134 48q25 0 74 -14l8 -8l-41 -152l-16 -4q-31 29 -107 29q-68 0 -114 -72q-70 -106 -70 -203v-106q0 -229 18 -369l-4 -6q-37 6 -96 6t-96 -6l-4 6q18 127 18 369v112q0 283 -18 398l4 6q90 -8 166 6q12 0 12 -21v-186z"></glyph>
      <glyph glyph-name="s" unicode="s" d="M102 207l31 2q106 -147 242 -148q84 0 136 45.5t52 124.5q0 70 -50 104t-157 62q-115 31 -180 86.5t-65 165.5q0 119 92 184.5t217 65.5q158 0 276 -61l4 -7l-41 -151l-28 -2q-39 45 -57.5 64.5t-65.5 47t-96 27.5q-68 0 -112 -33.5t-44 -95.5q0 -115 190 -160 q127 -31 203 -92t76 -176q0 -47 -15.5 -92t-51 -90t-108.5 -71.5t-173 -26.5q-152 0 -309 55z"></glyph>
      <glyph glyph-name="t" unicode="t" d="M195 879q0 63 4 145t4 117l4 6q31 4 52.5 11t49 20.5t41.5 19.5q18 0 19 -20q-10 -131 -11 -299h97q39 0 143 4l10 -15q-16 -41 -24 -84q-41 4 -148 4h-78v-258q0 -70 -3 -159.5t-3 -112.5q0 -158 68 -168q79 -13 161 16l25 -51q-119 -76 -237 -75q-76 0 -128.5 51 t-52.5 145q0 23 3.5 142.5t3.5 189.5v280q-96 0 -146 -4l-10 15q29 45 45 84q29 -4 111 -4z"></glyph>
      <glyph glyph-name="u" unicode="u" d="M748 188q-57 -88 -139.5 -148t-170.5 -60q-141 0 -204.5 81.5t-63.5 202.5v246q0 238 -18 369l4 6q37 -6 96 -6t96 6l4 -6q-18 -123 -18 -369v-203q0 -129 36 -171t101 -42q72 0 150.5 64.5t130.5 150.5v201q0 233 -19 369l4 6q37 -6 96.5 -6t96.5 6l4 -6 q-18 -123 -19 -369v-117q0 -207 35 -393l-4 -6q-41 6 -91 6q-24 0 -71 -6q-18 0 -18 6l-10 182z"></glyph>
      <glyph glyph-name="v" unicode="v" d="M403 -6q-231 602 -362 891q33 -6 108.5 -6t102.5 6q10 -32 42.5 -135.5t47.5 -150.5t43 -129.5t54.5 -150t55.5 -134.5h4q42 89 83.5 206.5t89 265.5t76.5 228q18 -6 69 -6q59 0 78 6q-254 -573 -367 -891q-18 6 -61.5 6t-63.5 -6z"></glyph>
      <glyph glyph-name="w" unicode="w" d="M410 -8q-199 518 -369 891q33 -6 108.5 -6t102.5 6q6 -18 36 -113.5t39 -124.5t35.5 -108.5t43 -124t41.5 -109t50 -121.5h13q64 137 173 446q-52 145 -89 257q33 -6 108.5 -6t102.5 6q93 -429 196 -700h16q121 282 253 700q18 -6 69 -6q70 0 88 6q-123 -270 -380 -891 q-18 6 -76 6q-33 0 -53 -6q-30 83 -92 248t-91 244q-61 -148 -184 -494q-18 6 -74 6q-47 0 -67 -6z"></glyph>
      <glyph glyph-name="x" unicode="x" d="M378 424l-329 461q45 -6 119 -6q61 0 111 6q17 -28 39.5 -67t40 -69t38 -64.5t43 -68.5t46.5 -66q30 39 61.5 84.5t55 81.5t56 85t56.5 84q29 -6 76 -6q57 0 92 6l-336 -413q30 -44 100 -148.5t124 -181t110 -148.5q-55 6 -117 6q-63 0 -105 -6q-11 17 -89.5 146.5 t-127.5 197.5q-46 -64 -118.5 -181.5t-102.5 -162.5q-35 6 -90 6q-41 0 -74 -6z"></glyph>
      <glyph glyph-name="y" unicode="y" d="M57 885q29 -6 107 -6q74 0 100 6q68 -209 274 -706h4q138 294 269 706q20 -6 80 -6q68 0 88 6q-88 -178 -315.5 -691t-278.5 -679q-35 10 -100 10q-37 0 -72 -10q147 248 242 465q-42 110 -398 905z"></glyph>
      <glyph glyph-name="z" unicode="z" d="M278 102q111 1 239 6.5t201 11.5l73 5l4 -6q-4 -33 -4 -64q0 -2 4 -55l-4 -6q-45 6 -115 6h-463l-166 -6l-6 9q12 13 45 63l481 710q-104 -1 -220.5 -7t-181.5 -11l-65 -4l-4 6q4 33 4 63q0 2 -4 56l4 6q47 -6 115 -6h418q20 0 49 2t52 4t42 4t22 2q6 0 8.5 -3t2.5 -9 q-14 -16 -61 -86z"></glyph>
      <glyph glyph-name="braceleft" unicode="{" d="M365 1130l16 -339q6 -127 -47 -187.5t-168 -93.5v-8q113 -47 167 -118t48 -189l-16 -306q-6 -123 43 -198.5t120 -75.5q8 -8 8.5 -24.5t-8.5 -24.5q-166 0 -242.5 71.5t-68.5 262.5l12 348q6 209 -200 233q-25 25 0 49q104 10 152 75t48 153l-12 377q-10 313 311 313 q8 -10 8.5 -24.5t-8.5 -24.5q-37 -10 -60.5 -22.5t-53 -40t-41.5 -79t-8 -127.5z"></glyph>
      <glyph glyph-name="bar" unicode="|" d="M266 -475h-100v1905h100v-1905z"></glyph>
      <glyph glyph-name="braceright" unicode="}" d="M195 -119l-17 340q-6 127 47.5 187.5t167.5 93.5v8q-113 47 -167 117.5t-48 189.5l17 305q6 123 -43.5 199t-120.5 76q-10 8 -10.5 24.5t10.5 24.5q166 0 242.5 -71.5t68.5 -262.5l-12 -348q-6 -209 200 -234q25 -25 0 -49q-104 -10 -152 -74.5t-48 -152.5l12 -377 q10 -313 -311 -313q-10 10 -10.5 24.5t10.5 24.5q37 10 60.5 22.5t53 40t42 78.5t8.5 127z"></glyph>
      <glyph glyph-name="asciitilde" unicode="~" d="M53 428q20 104 96 183t166 79q45 0 152 -65q106 -68 149 -68q53 0 112.5 34t90.5 103l35 -12q-29 -100 -82 -159.5t-91 -73t-73 -13.5q-57 0 -153 68q-96 66 -152 65q-57 0 -123.5 -41t-99.5 -106z"></glyph>
      <glyph glyph-name="uni00A0" unicode=" "></glyph>
      <glyph glyph-name="exclamdown" unicode="¡" d="M236 -469q-45 0 -80 39t-35 111q0 76 22.5 204.5t30.5 190.5q12 96 19.5 183t9.5 134t4 56q4 41 28.5 40.5t28.5 -26.5l10 -146q10 -145 21 -241q8 -72 29.5 -194t21.5 -201q0 -76 -34.5 -113t-75.5 -37zM350 788v-8q-27 -76 -110 -110h-9q-84 31 -110 110v8 q29 90 110 111h9q49 -10 72.5 -35t37.5 -76z"></glyph>
      <glyph glyph-name="cent" unicode="¢" d="M523 1344h79v-211q38 0 78 -4.5t75.5 -12.5t67 -18.5t55.5 -23.5l4 -6l-48 -172l-27 -2q-88 152 -205 155v-751h8q126 0 224 88h9l39 -44q-29 -37 -60.5 -64t-66.5 -45t-72.5 -27.5t-80.5 -11.5v-222h-79v224q-222 23 -317 221q-52 110 -52 253q0 180 108.5 303.5 t260.5 152.5v218zM523 314v721q-82 -32 -133.5 -125t-51.5 -229q0 -143 50.5 -238t134.5 -129z"></glyph>
      <glyph glyph-name="sterling" unicode="£" d="M484 902v-156h274q16 0 16 -13v-49q0 -13 -16.5 -20.5t-36.5 -7.5h-237q-3 -308 -161 -456h12q70 0 122 -10.5t82 -25.5t55.5 -30t57.5 -26t71 -11q157 0 228 96l40 -23q-72 -154 -235 -186q-36 -7 -72 -7q-66 0 -118 20t-80.5 44.5t-79.5 45t-115 20.5q-93 0 -93 -54 q0 -37 -25 -56.5t-64 -19.5q-31 0 -50 17t-19 43q0 49 111 109q90 66 123 183.5t33 289.5v37h-139q-6 0 -9 1t-4.5 4t-1.5 9v30q0 17 13.5 31.5t40.5 14.5h100v45q0 94 14.5 157.5t45.5 113.5t89 108q156 156 388 156q60 0 93 -19l3 -7q-28 -48 -59 -167l-23 -3 q-43 72 -118 72q-92 0 -174 -92.5t-82 -207.5z"></glyph>
      <glyph glyph-name="currency" unicode="¤" d="M237 672q0 -131 75.5 -221.5t196.5 -90.5q119 0 194.5 91t75.5 219q0 130 -78 219.5t-187 89.5q-120 0 -198.5 -90t-78.5 -217zM509 263q-140 0 -251 84l-100 -124l-95 93l125 100q-45 54 -67.5 118t-22.5 136q0 151 90 256l-121 95l86 93l108 -119q112 82 248 82 q36 0 69.5 -5.5t65.5 -16t61.5 -27t57.5 -37.5l107 128l91 -96l-128 -102q88 -108 88 -251q0 -138 -86 -249l121 -102l-84 -89l-107 119q-38 -29 -79 -48t-85 -28.5t-92 -9.5z"></glyph>
      <glyph glyph-name="yen" unicode="¥" d="M109 532q-8 0 -9.5 2.5t-1.5 12.5v32q0 17 12 31.5t39 14.5h233q-38 71 -184.5 356.5t-188.5 355.5q35 -7 119 -7h11h11h12t12 0.5t12 0.5t12 0.5t12.5 1t11.5 1t11.5 1.5t10.5 2q149 -385 292 -635q28 45 56 96.5t49 94.5t48 106t44 104t47.5 116.5t47.5 117.5 q23 -7 86 -7h21t21 1t24 2.5t20 3.5q-177 -310 -385 -712h299q5 0 8.5 -1t5.5 -4.5t2 -7.5v-49q0 -7 -5 -13.5t-13 -10t-17 -5.5t-18 -2h-280q1 -108 2 -146h315q16 0 16 -14v-46q0 -14 -16.5 -22.5t-36.5 -8.5h-277q2 -100 5.5 -180.5t6.5 -121.5q-34 7 -107 7 q-72 0 -105 -7q9 86 12 302h-303q-8 0 -9.5 2.5t-1.5 11.5v31q0 17 12 31.5t39 14.5h264q0 47 1 146h-305z"></glyph>
      <glyph glyph-name="brokenbar" unicode="¦" d="M264 1380v-741h-98v741h98zM264 330v-742h-98v742h98z"></glyph>
      <glyph glyph-name="section" unicode="§" d="M302 793q-83 -82 -83 -168q0 -35 11.5 -69t24.5 -58.5t45 -53t49.5 -44t63.5 -43t60 -35t67.5 -34t59.5 -30.5q48 -25 87 -55q83 82 83 168q0 35 -11 68.5t-24.5 58t-45.5 53.5t-49 44t-63.5 43t-60.5 35t-67.5 33.5t-59.5 30.5q-48 26 -87 56zM256 834q-90 95 -90 223 q0 109 94 200t240 91q66 0 128 -27t85.5 -45.5t70.5 -56.5l7 -11l-35 -149l-29 -4q-57 98 -113.5 154.5t-132.5 56.5q-74 0 -124 -47.5t-50 -120.5q0 -135 164 -203q416 -170 416 -446q0 -173 -154 -288q90 -95 90 -222q0 -109 -94 -200t-240 -91q-66 0 -128 26.5t-85.5 45 t-70.5 57.5l-6 10l34 150l29 4q57 -98 113.5 -154.5t132.5 -56.5q74 0 124 47t50 121q0 135 -164 202q-416 170 -416 447q0 172 154 287z"></glyph>
      <glyph glyph-name="dieresis" unicode="¨" d="M102 1176q0 41 29 69.5t68 28.5t67.5 -28.5t28.5 -69.5t-28.5 -69t-67.5 -28t-68 28t-29 69zM449 1176q0 41 28.5 69.5t67.5 28.5t67.5 -28.5t28.5 -69.5t-27.5 -69t-68.5 -28t-68.5 28t-27.5 69z"></glyph>
      <glyph glyph-name="copyright" unicode="©" d="M899 442q-35 -53 -99.5 -92t-142.5 -39q-135 0 -227 91.5t-92 213.5q0 129 95 224.5t229 95.5q82 0 133 -15.5t69 -15.5l29 -160l-41 -8q-29 78 -73 115t-126 37q-76 0 -132 -58.5t-56 -193.5q0 -117 55 -191.5t156 -74.5q115 0 184 102zM649.5 47q-239.5 0 -409.5 170 t-170 409.5t170 408.5t409.5 169t408.5 -169t169 -408.5t-169 -409.5t-408.5 -170zM649 1141q-215 0 -365.5 -150.5t-150.5 -363.5t150.5 -363.5t365.5 -150.5q213 0 363.5 150.5t150.5 363.5t-150.5 363.5t-363.5 150.5z"></glyph>
      <glyph glyph-name="ordfeminine" unicode="ª" d="M387 1032l-104 -31q-70 -20 -95.5 -49.5t-25.5 -77.5q0 -31 24.5 -53t65.5 -22q49 0 113 49q16 12 16 33zM487 842q0 -39 21 -39q8 0 49 26l4 -2l21 -26q-53 -68 -113 -68q-72 0 -80 74h-8q-53 -45 -85 -59.5t-83 -14.5q-74 0 -117 35t-43 102q0 63 56.5 112.5 t154.5 72.5l115 26q8 4 8 15q0 66 -21.5 102.5t-43 42.5t-52.5 6q-72 0 -139 -112h-16l-23 90l4 4q94 76 187 76q209 0 209 -207q0 -4 -2.5 -120t-2.5 -136z"></glyph>
      <glyph glyph-name="guillemotleft" unicode="«" d="M319 440q121 -137 261 -348q-8 -35 -50 -39q-209 225 -378 375v25q170 150 378 374q41 -4 50 -39q-140 -211 -261 -348zM688 440q121 -137 260 -348q-8 -35 -49 -39q-209 225 -379 375v25q170 150 379 374q41 -4 49 -39q-139 -211 -260 -348z"></glyph>
      <glyph glyph-name="logicalnot" unicode="¬" d="M989 272v459h-940v90h1051v-549h-111z"></glyph>
      <glyph glyph-name="uni00AD" unicode="­" d="M561 483h-463q-31 0 -30 35q0 25 16 50.5t35 25.5h469q29 0 28 -37q0 -18 -18.5 -46t-36.5 -28z"></glyph>
      <glyph glyph-name="registered" unicode="®" d="M883 758q0 -113 -119 -152l98 -168q31 -53 88 -43l8 -35q-35 -14 -73 -14q-82 0 -125 72l-98 164q-10 8 -76 8v-148q0 -39 24 -43l29 -4q23 -2 23 -12v-33l-5 -4q-84 4 -120 4l-125 -4l-4 4v35q0 8 20 10l35 4q27 4 26 43v369q0 51 -47 51h-22q-16 0 -17 10v35l5 4h278 q104 0 150.5 -48t46.5 -105zM770 758q0 104 -102 104q-82 0 -82 -51v-172h65q55 0 87 23.5t32 95.5zM649.5 47q-239.5 0 -409.5 170t-170 409.5t170 408.5t409.5 169t408.5 -169t169 -408.5t-169 -409.5t-408.5 -170zM649 1141q-215 0 -365.5 -150.5t-150.5 -363.5 t150.5 -363.5t365.5 -150.5q213 0 363.5 150.5t150.5 363.5t-150.5 363.5t-363.5 150.5z"></glyph>
      <glyph glyph-name="macron" unicode="¯" d="M645 1083h-500q-25 0 -24 31q0 20 13 40t32 20h500q29 0 28 -29q0 -20 -15.5 -41t-33.5 -21z"></glyph>
      <glyph glyph-name="degree" unicode="°" d="M410 1073q0 57 -36 103.5t-99.5 46.5t-100.5 -45t-37 -105q0 -57 38 -100t99 -43q59 0 97.5 44t38.5 99zM70 1075q0 86 60 145.5t144 59.5t143.5 -59.5t59.5 -145.5q0 -84 -59.5 -143.5t-143.5 -59.5t-144 59.5t-60 143.5z"></glyph>
      <glyph glyph-name="plusminus" unicode="±" d="M592 700h352v-100h-352v-356h-105v356h-352v100h352v357h105v-357zM944 139v-100h-809v100h809z"></glyph>
      <glyph glyph-name="two.superior" unicode="²" d="M145 1260h-26l-23 86l4 4q68 61 191 61q104 0 166 -43q68 -45 67.5 -129t-106.5 -184l-109 -107q-72 -72 -71 -94h88q59 0 202 10q-6 -29 -6 -71q0 -23 6 -52q-111 4 -188 4q-55 0 -260 -4l-2 4q0 70 149 224l82 80q68 70 68 192q0 47 -33 80q-29 31 -61 31 q-87 0 -138 -92z"></glyph>
      <glyph glyph-name="three.superior" unicode="³" d="M350 817q45 37 45 121q0 127 -121 127q-29 0 -41 -2v51q150 6 150 139q0 43 -23 72q-25 29 -55 29q-55 0 -84 -25q-25 -18 -53 -72h-27l-22 86l2 7q70 59 192 59q84 0 138 -31q59 -37 59 -108q0 -133 -129 -166v-4q68 -6 111 -43q51 -43 51 -115q0 -106 -86 -162 q-72 -47 -183 -47q-106 0 -176 62l-4 4l25 86l24 2q33 -57 50 -72q29 -25 83 -24q43 -1 74 26z"></glyph>
      <glyph glyph-name="acute" unicode="´" d="M358 1440q12 4 29 4q63 0 113 -47l6 -23l-236 -223q-39 -39 -61 -39q-10 0 -19.5 8t-9.5 19q0 20 24 57z"></glyph>
      <glyph glyph-name="uni00B5" unicode="µ" d="M207 -479q-31 0 -71 38t-40 95q0 49 16.5 155.5t16.5 174.5q0 27 -9 126t-9 164v385l-21 220q27 0 89.5 9t78.5 11q6 -131 6 -197v-401q0 -229 142 -229q80 0 150.5 39t107.5 92v676q29 0 86 9t67 11v-645q0 -59 1 -84t6 -51.5t15.5 -34.5t30.5 -8q35 0 70 86l49 -23 q-33 -84 -71.5 -121.5t-114.5 -37.5q-57 0 -98 41.5t-41 101.5q-131 -143 -297 -143q-78 0 -117 47q-25 0 -25 -19q0 -72 33 -198.5t33 -165.5q0 -59 -23.5 -91t-60.5 -32z"></glyph>
      <glyph glyph-name="paragraph" unicode="¶" d="M752 1176v-1506q0 -78 82 -78q84 0 84 78v1506q0 78 -84 77q-82 1 -82 -77zM836 1321l202 6l2 -6q-20 -135 -20 -410v-977q0 -264 20 -409l-4 -6q-133 6 -202 6l-201 -6l-4 6q20 145 20 409v650q-27 -6 -65 -6q-227 0 -347 102t-120 305q0 135 100 237.5t289 102.5 q88 0 201 -2t129 -2z"></glyph>
      <glyph glyph-name="periodcentered" unicode="·" d="M256 418q-49 0 -80 32.5t-31 77.5q0 43 33 77t78 34q43 0 77 -33t34 -78t-32 -77.5t-79 -32.5z"></glyph>
      <glyph glyph-name="cedilla" unicode="¸" d="M618 -197q-53 0 -92 -12l-12 12l82 197h70l-52 -137q25 6 54 6q63 0 104 -35t41 -92q0 -66 -62.5 -109t-156.5 -43q-72 0 -152 35q0 33 21 53q78 -29 119 -28q47 0 75.5 21.5t28.5 60.5q0 71 -68 71z"></glyph>
      <glyph glyph-name="one.superior" unicode="¹" d="M498 950q0 -119 14 -205l-2 -4q-37 4 -78 4q-39 0 -74 -4v4q12 74 13 205v267q0 70 -21 69q-72 0 -119 -6l-2 47q66 16 275 82q6 0 6 -6q-12 -84 -12 -176v-277z"></glyph>
      <glyph glyph-name="ordmasculine" unicode="º" d="M80 879q0 131 75.5 205.5t206.5 74.5q141 0 208 -76.5t67 -191.5q0 -113 -74 -191.5t-211 -78.5q-115 0 -193.5 73.5t-78.5 184.5zM350 1108q-74 0 -112.5 -60.5t-38.5 -148.5q0 -86 45 -153.5t131 -67.5q55 0 100 41t45 139q0 121 -46 185.5t-124 64.5z"></glyph>
      <glyph glyph-name="guillemotright" unicode="»" d="M793 440q-121 137 -261 348q8 35 50 39q209 -225 379 -374v-25q-170 -150 -379 -375q-41 4 -50 39q140 211 261 348zM424 440q-121 137 -260 348q8 35 49 39q209 -225 379 -374v-25q-170 -150 -379 -375q-41 4 -49 39q139 211 260 348z"></glyph>
      <glyph glyph-name="onequarter" unicode="¼" d="M1141 1231l84 -17l-938 -1341l-86 16zM813 16q-59 0 -61 15q0 35 12 51q125 168 280 428v4q12 -4 54 -4q39 0 73 4l3 -4q-10 -82 -11 -162v-260h78q14 0 14 -22q0 -10 -8 -29q-12 -20 -22 -21h-62q0 -80 11 -159l-3 -4q-35 4 -73 4q-41 0 -76 -4v4q12 92 12 159h-221z M836 88h198v313zM492 850q0 -119 14 -205l-2 -4q-37 4 -78 4q-39 0 -74 -4v4q12 74 13 205v266q0 70 -21 70q-72 0 -119 -6l-2 47q66 16 275 82q6 0 6 -6q-12 -84 -12 -177v-276z"></glyph>
      <glyph glyph-name="onehalf" unicode="½" d="M1090 1231l86 -17l-940 -1341l-84 16zM879 352h-27l-23 86l5 4q68 61 190 62q104 0 166 -43q68 -45 67.5 -129t-106.5 -185l-109 -106q-72 -72 -71 -94h88q59 0 203 10q-6 -29 -7 -72q0 -23 7 -51q-111 4 -189 4q-55 0 -260 -4l-2 4q0 70 150 223l81 80q68 70 68 193 q0 47 -33 80q-29 31 -61 30q-86 0 -137 -92zM496 850q0 -119 14 -205l-2 -4q-37 4 -78 4q-39 0 -74 -4v4q12 74 13 205v266q0 70 -21 70q-72 0 -119 -6l-2 47q66 16 275 82q6 0 6 -6q-12 -84 -12 -177v-276z"></glyph>
      <glyph glyph-name="threequarters" unicode="¾" d="M1151 1231l84 -17l-938 -1341l-86 16zM346 713q45 37 45 121q0 127 -121 127q-29 0 -41 -3v52q150 6 150 139q0 43 -23 72q-25 29 -55 28q-55 0 -84 -24q-25 -18 -53 -72h-27l-22 86l2 6q70 59 192 60q84 0 137 -31q59 -37 60 -109q0 -133 -129 -166v-4q68 -6 110 -43 q51 -43 52 -114q0 -106 -86 -162q-72 -47 -183 -47q-106 0 -176 61l-4 4l25 86l24 2q33 -57 49 -71q29 -25 84 -25q43 0 74 27zM821 20q-59 0 -61 15q0 35 12 51q125 168 281 428v4q12 -4 53 -4q39 0 74 4l2 -4q-10 -82 -11 -162v-260h78q14 0 15 -22q0 -10 -9 -29 q-12 -20 -22 -21h-62q0 -80 11 -159l-2 -4q-35 4 -74 4q-41 0 -76 -4v4q12 92 12 159h-221zM844 92h198v314z"></glyph>
      <glyph glyph-name="questiondown" unicode="¿" d="M432 -389q141 0 252 192l27 -2l32 -137l-6 -8q-152 -127 -323 -127q-156 0 -247 84t-91 225q0 76 39 142.5t75.5 99.5t102.5 80q86 63 106 102q37 72 37 150v90q0 20 26.5 20t26.5 -20v-94q0 -59 -5 -100.5t-37.5 -108t-94.5 -121.5q-66 -61 -94.5 -111.5t-28.5 -120.5 q0 -100 57.5 -167.5t145.5 -67.5zM578 788v-8q-27 -76 -111 -110h-8q-84 31 -111 110v8q29 90 111 111h8q49 -10 73 -35t38 -76z"></glyph>
      <glyph glyph-name="Agrave" unicode="À" d="M524 1675l248 -172q31 -23 31 -43q0 -12 -9.5 -21t-21.5 -9q-31 0 -88 24l-315 129q63 61 155 92zM834 564q-44 115 -95.5 241t-111.5 264h-4l-216 -504q24 0 102 -2t112 -2q87 0 213 3zM367 468q-59 -145 -103 -265t-67 -209q-25 6 -93 6q-47 0 -71 -6q348 764 604 1354 h57q70 -166 198 -483.5t223 -549t140 -321.5q-35 6 -122 6q-68 0 -103 -6q-4 14 -9.5 32.5t-15 50t-22.5 71t-29 87t-37.5 108.5t-45.5 125q-67 2 -127 2.5t-113 0.5q-117 0 -264 -3z"></glyph>
      <glyph glyph-name="Aacute" unicode="Á" d="M752 1679q88 -41 127 -106l-295 -119q-57 -25 -86 -24q-31 0 -31 30q0 23 31 43zM834 564q-44 115 -95.5 241t-111.5 264h-4l-216 -504q24 0 102 -2t112 -2q87 0 213 3zM367 468q-59 -145 -103 -265t-67 -209q-25 6 -93 6q-47 0 -71 -6q348 764 604 1354h57 q70 -166 198 -483.5t223 -549t140 -321.5q-35 6 -122 6q-68 0 -103 -6q-4 14 -9.5 32.5t-15 50t-22.5 71t-29 87t-37.5 108.5t-45.5 125q-67 2 -127 2.5t-113 0.5q-117 0 -264 -3z"></glyph>
      <glyph glyph-name="Acircumflex" unicode="Â" d="M709 1649q84 -100 206 -193l-32 -43q-127 59 -217 127q-102 -76 -220 -127l-28 43q88 66 203 193h88zM834 564q-44 115 -95.5 241t-111.5 264h-4l-216 -504q24 0 102 -2t112 -2q87 0 213 3zM367 468q-59 -145 -103 -265t-67 -209q-25 6 -93 6q-47 0 -71 -6 q348 764 604 1354h57q70 -166 198 -483.5t223 -549t140 -321.5q-35 6 -122 6q-68 0 -103 -6q-4 14 -9.5 32.5t-15 50t-22.5 71t-29 87t-37.5 108.5t-45.5 125q-67 2 -127 2.5t-113 0.5q-117 0 -264 -3z"></glyph>
      <glyph glyph-name="Atilde" unicode="Ã" d="M807 1524q35 0 58.5 22.5t43.5 83.5l49 -12q-37 -184 -178 -184q-51 0 -131 53q-74 45 -110 45q-39 0 -61.5 -23.5t-39.5 -74.5l-49 10q23 92 60.5 137t103 45t147.5 -57q60 -45 107 -45zM834 564q-44 115 -95.5 241t-111.5 264h-4l-216 -504q24 0 102 -2t112 -2 q87 0 213 3zM367 468q-59 -145 -103 -265t-67 -209q-25 6 -93 6q-47 0 -71 -6q348 764 604 1354h57q70 -166 198 -483.5t223 -549t140 -321.5q-35 6 -122 6q-68 0 -103 -6q-4 14 -9.5 32.5t-15 50t-22.5 71t-29 87t-37.5 108.5t-45.5 125q-67 2 -127 2.5t-113 0.5 q-117 0 -264 -3z"></glyph>
      <glyph glyph-name="Adieresis" unicode="Ä" d="M293 1452q0 39 27.5 65.5t66.5 26.5t65.5 -26.5t26.5 -65.5t-26.5 -65.5t-65.5 -26.5t-66.5 26.5t-27.5 65.5zM856 1452q0 39 27.5 65.5t66.5 26.5t65.5 -26.5t26.5 -65.5t-26.5 -65.5t-65.5 -26.5t-66.5 26.5t-27.5 65.5zM834 564q-44 115 -95.5 241t-111.5 264h-4 l-216 -504q24 0 102 -2t112 -2q87 0 213 3zM367 468q-59 -145 -103 -265t-67 -209q-25 6 -93 6q-47 0 -71 -6q348 764 604 1354h57q70 -166 198 -483.5t223 -549t140 -321.5q-35 6 -122 6q-68 0 -103 -6q-4 14 -9.5 32.5t-15 50t-22.5 71t-29 87t-37.5 108.5t-45.5 125 q-67 2 -127 2.5t-113 0.5q-117 0 -264 -3z"></glyph>
      <glyph glyph-name="Aring" unicode="Å" d="M664 1577q-47 0 -75 -34t-28 -81q0 -45 28.5 -79.5t74 -34.5t74 34.5t28.5 79.5q0 49 -28.5 82t-73.5 33zM485 1462q0 70 53.5 120t125 50t125 -49t53.5 -121q0 -56 -36 -101t-92 -62q67 -160 192.5 -471.5t215.5 -528.5t133 -305q-35 6 -122 6q-68 0 -103 -6 q-4 14 -9.5 32.5t-15 50t-22.5 71t-29 87t-37.5 108.5t-45.5 125q-67 2 -127 2.5t-113 0.5q-117 0 -264 -3q-59 -145 -103 -265t-67 -209q-25 6 -93 6q-47 0 -71 -6q336 735 583 1305q-56 16 -93.5 61t-37.5 102zM834 564q-44 115 -95.5 241t-111.5 264h-4l-216 -504 q24 0 102 -2t112 -2q87 0 213 3z"></glyph>
      <glyph glyph-name="AE" unicode="Æ" d="M455 570q-164 -340 -254 -576q-25 6 -92 6q-47 0 -72 -6q52 99 127 247t134.5 265t132.5 255.5t153.5 281t165.5 279.5l4 5q35 -6 104 -6h436q74 0 123 6l4 -6q-4 -57 -4 -64q0 -20 4 -53l-4 -8q-159 21 -375 21q-115 0 -148 -19t-25 -81q41 -203 95 -435q224 0 459 20 l7 -6q-6 -29 -6.5 -57.5t6.5 -56.5l-7 -7q-172 17 -439 21q64 -272 121 -482l435 21l4 -8q-4 -33 -4 -68q0 -2 4 -59l-4 -6q-49 6 -123 6h-280h-3h-110q-68 0 -102 -6q0 101 -91 578q-68 1 -135 1q-98 0 -241 -3zM813 665q-34 178 -83 428h-4q-109 -192 -224 -426 q172 -3 184 -3h58t69 1z"></glyph>
      <glyph glyph-name="Ccedilla" unicode="Ç" d="M752 -205q-53 0 -93 -12l-12 12l77 186q-148 8 -268.5 68t-195 153.5t-114.5 207.5t-40 235q0 295 203 499t469 204q111 0 222.5 -22.5t167.5 -46.5l57 -24l4 -6q-35 -147 -41 -227l-21 -2q-115 231 -417 231q-68 0 -139.5 -31.5t-139.5 -95t-111 -178.5t-43 -262 q0 -156 50.5 -289t160 -222t260.5 -89q141 0 233.5 45t203.5 166l49 -39q-204 -264 -480 -276l-46 -125q25 6 53 6q63 0 104 -35t41 -92q0 -66 -62.5 -109t-156.5 -43q-72 0 -152 35q0 33 21 53q78 -29 119 -28q47 0 75.5 21.5t28.5 60.5q1 71 -67 71z"></glyph>
      <glyph glyph-name="Egrave" unicode="È" d="M389 410q0 -240 17 -295q123 0 267 6t227 12l83 6l4 -8q-4 -33 -4 -68q0 -6 4 -63l-4 -6q-49 6 -123 6h-559l-106 -6l-2 6q20 139 20 410v501q0 264 -20 410l4 6q35 -6 104 -6h539q74 0 123 6l4 -6q-4 -57 -4 -77.5t4 -53.5l-4 -8q-283 25 -557 24q-16 -55 -17 -295v-159 q215 0 457 20l6 -6q-6 -29 -6 -65.5t6 -65.5l-6 -6q-203 20 -457 20v-239zM502 1673l248 -172q31 -23 30 -43q0 -12 -9 -21.5t-21 -9.5q-31 0 -88 25l-316 129q64 61 156 92z"></glyph>
      <glyph glyph-name="Eacute" unicode="É" d="M389 410q0 -240 17 -295q123 0 267 6t227 12l83 6l4 -8q-4 -33 -4 -68q0 -6 4 -63l-4 -6q-49 6 -123 6h-559l-106 -6l-2 6q20 139 20 410v501q0 264 -20 410l4 6q35 -6 104 -6h539q74 0 123 6l4 -6q-4 -57 -4 -77.5t4 -53.5l-4 -8q-283 25 -557 24q-16 -55 -17 -295v-159 q215 0 457 20l6 -6q-6 -29 -6 -65.5t6 -65.5l-6 -6q-203 20 -457 20v-239zM717 1679q88 -41 127 -106l-295 -119q-57 -25 -86 -24q-31 0 -31 30q0 23 31 43z"></glyph>
      <glyph glyph-name="Ecircumflex" unicode="Ê" d="M649 1649q84 -100 207 -193l-33 -43q-127 59 -217 127q-102 -76 -219 -127l-29 43q88 66 203 193h88zM389 410q0 -240 17 -295q123 0 267 6t227 12l83 6l4 -8q-4 -33 -4 -68q0 -6 4 -63l-4 -6q-49 6 -123 6h-559l-106 -6l-2 6q20 139 20 410v501q0 264 -20 410l4 6 q35 -6 104 -6h539q74 0 123 6l4 -6q-4 -57 -4 -77.5t4 -53.5l-4 -8q-283 25 -557 24q-16 -55 -17 -295v-159q215 0 457 20l6 -6q-6 -29 -6 -65.5t6 -65.5l-6 -6q-203 20 -457 20v-239z"></glyph>
      <glyph glyph-name="Edieresis" unicode="Ë" d="M684 1538q0 39 28.5 68.5t69.5 29.5t70 -29.5t29 -68.5t-29 -68.5t-70 -29.5t-69.5 29.5t-28.5 68.5zM297 1538q0 39 29.5 68.5t68.5 29.5t69 -29.5t30 -68.5t-30 -68.5t-69 -29.5t-68.5 29.5t-29.5 68.5zM389 410q0 -240 17 -295q123 0 267 6t227 12l83 6l4 -8 q-4 -33 -4 -68q0 -6 4 -63l-4 -6q-49 6 -123 6h-559l-106 -6l-2 6q20 139 20 410v501q0 264 -20 410l4 6q35 -6 104 -6h539q74 0 123 6l4 -6q-4 -57 -4 -77.5t4 -53.5l-4 -8q-283 25 -557 24q-16 -55 -17 -295v-159q215 0 457 20l6 -6q-6 -29 -6 -65.5t6 -65.5l-6 -6 q-203 20 -457 20v-239z"></glyph>
      <glyph glyph-name="Igrave" unicode="Ì" d="M213 911q0 264 -20 410l4 6q37 -6 104.5 -6t104.5 6l4 -6q-20 -135 -21 -410v-501q0 -264 21 -410l-4 -6q-37 6 -105 6t-104 -6l-4 6q20 139 20 410v501zM203 1673l248 -172q31 -23 30 -43q0 -12 -9 -21.5t-21 -9.5q-31 0 -89 25l-315 129q64 61 156 92z"></glyph>
      <glyph glyph-name="Iacute" unicode="Í" d="M213 911q0 264 -20 410l4 6q37 -6 104.5 -6t104.5 6l4 -6q-20 -135 -21 -410v-501q0 -264 21 -410l-4 -6q-37 6 -105 6t-104 -6l-4 6q20 139 20 410v501zM430 1677q88 -41 127 -106l-295 -119q-57 -25 -86 -25q-31 0 -31 31q0 23 31 43z"></glyph>
      <glyph glyph-name="Icircumflex" unicode="Î" d="M342 1649q84 -100 207 -193l-33 -43q-127 59 -217 127q-102 -76 -219 -127l-29 43q88 66 203 193h88zM213 911q0 264 -20 410l4 6q37 -6 104.5 -6t104.5 6l4 -6q-20 -135 -21 -410v-501q0 -264 21 -410l-4 -6q-37 6 -105 6t-104 -6l-4 6q20 139 20 410v501z"></glyph>
      <glyph glyph-name="Idieresis" unicode="Ï" d="M414 1536q0 41 28.5 69.5t69.5 28.5t69.5 -28.5t28.5 -69.5t-28.5 -69.5t-69.5 -28.5t-69.5 28.5t-28.5 69.5zM27 1536q0 41 29.5 69.5t68.5 28.5t68.5 -28.5t29.5 -69.5t-29.5 -69.5t-68.5 -28.5t-68.5 28.5t-29.5 69.5zM213 911q0 264 -20 410l4 6q37 -6 104.5 -6 t104.5 6l4 -6q-20 -135 -21 -410v-501q0 -264 21 -410l-4 -6q-37 6 -105 6t-104 -6l-4 6q20 139 20 410v501z"></glyph>
      <glyph glyph-name="Eth" unicode="Ð" d="M389 168q0 -51 39 -66.5t184 -15.5q119 0 206 20.5t163 71.5t116 152.5t40 251.5q0 127 -29 236.5t-92.5 207.5t-179 154.5t-275.5 56.5q-86 0 -129 -16.5t-43 -65.5v-487h201v-80h-201v-420zM301 1321q66 0 169 3t169 3q295 0 502 -204.5t207 -491.5q0 -145 -43 -259 t-110 -182.5t-158 -113.5t-179 -62.5t-182 -17.5q-115 0 -213 2t-162 2l-106 -6l-2 6q20 139 20 410v178h-178v80h178v243q0 264 -20 410l4 6q34 -6 104 -6z"></glyph>
      <glyph glyph-name="Ntilde" unicode="Ñ" d="M854 1520q35 0 58.5 22.5t43.5 83.5l50 -12q-37 -184 -179 -184q-51 0 -131 53q-74 45 -110 45q-39 0 -61.5 -23.5t-39.5 -74.5l-49 10q23 92 61 137t103.5 45t147.5 -57q59 -45 106 -45zM221 1321l4 6q16 -6 86 -6l29 4l702 -909q82 -106 97 -113t20 19q3 15 4 43v546 q0 264 -20 410l4 6q37 -6 71.5 -6t71.5 6l4 -6q-12 -160 -19 -335t-9 -290.5t-6.5 -328.5t-6.5 -324q-4 -63 -39 -63q-51 0 -88 49l-714 903q-31 41 -45.5 56.5t-23.5 10t-10 -26t-1 -73.5v-489q0 -264 20 -410l-4 -6q-37 6 -71.5 6t-71.5 -6l-4 6q25 238 29.5 637t-9.5 684 z"></glyph>
      <glyph glyph-name="Ograve" unicode="Ò" d="M727 1257q-168 0 -289 -144t-121 -443q0 -281 141.5 -440.5t338.5 -159.5q180 0 291.5 148.5t111.5 416.5q0 311 -125 466.5t-348 155.5zM1411 674q0 -307 -181 -500.5t-474 -193.5q-272 0 -461 180t-189 475q0 301 186.5 507t461.5 206q281 0 469 -187.5t188 -486.5z M623 1677l247 -172q31 -23 31 -43q0 -12 -9 -21t-22 -9q-31 0 -88 24l-315 129q64 61 156 92z"></glyph>
      <glyph glyph-name="Oacute" unicode="Ó" d="M727 1257q-168 0 -289 -144t-121 -443q0 -281 141.5 -440.5t338.5 -159.5q180 0 291.5 148.5t111.5 416.5q0 311 -125 466.5t-348 155.5zM1411 674q0 -307 -181 -500.5t-474 -193.5q-272 0 -461 180t-189 475q0 301 186.5 507t461.5 206q281 0 469 -187.5t188 -486.5z M793 1679q88 -41 127 -106l-295 -119q-57 -25 -86 -24q-31 0 -31 30q0 23 31 43z"></glyph>
      <glyph glyph-name="Ocircumflex" unicode="Ô" d="M795 1649q84 -100 206 -193l-32 -43q-127 59 -217 127q-102 -76 -220 -127l-28 43q88 66 203 193h88zM727 1257q-168 0 -289 -144t-121 -443q0 -281 141.5 -440.5t338.5 -159.5q180 0 291.5 148.5t111.5 416.5q0 311 -125 466.5t-348 155.5zM1411 674q0 -307 -181 -500.5 t-474 -193.5q-272 0 -461 180t-189 475q0 301 186.5 507t461.5 206q281 0 469 -187.5t188 -486.5z"></glyph>
      <glyph glyph-name="Otilde" unicode="Õ" d="M870 1520q35 0 58.5 22.5t44.5 83.5l49 -12q-37 -184 -178 -184q-51 0 -131 53q-74 45 -111 45q-39 0 -61.5 -23.5t-38.5 -74.5l-49 10q23 92 60.5 137t103 45t147.5 -57q59 -45 106 -45zM727 1257q-168 0 -289 -144t-121 -443q0 -281 141.5 -440.5t338.5 -159.5 q180 0 291.5 148.5t111.5 416.5q0 311 -125 466.5t-348 155.5zM1411 674q0 -307 -181 -500.5t-474 -193.5q-272 0 -461 180t-189 475q0 301 186.5 507t461.5 206q281 0 469 -187.5t188 -486.5z"></glyph>
      <glyph glyph-name="Odieresis" unicode="Ö" d="M193 1452q0 39 27.5 65.5t66.5 26.5t65.5 -26.5t26.5 -65.5t-26.5 -65.5t-65.5 -26.5t-66.5 26.5t-27.5 65.5zM1141 1452q0 39 26.5 65.5t65.5 26.5t65.5 -26.5t26.5 -65.5t-26.5 -65.5t-65.5 -26.5t-65.5 26.5t-26.5 65.5zM727 1257q-168 0 -289 -144t-121 -443 q0 -281 141.5 -440.5t338.5 -159.5q180 0 291.5 148.5t111.5 416.5q0 311 -125 466.5t-348 155.5zM1411 674q0 -307 -181 -500.5t-474 -193.5q-272 0 -461 180t-189 475q0 301 186.5 507t461.5 206q281 0 469 -187.5t188 -486.5z"></glyph>
      <glyph glyph-name="multiply" unicode="×" d="M610 471l252 -250l-71 -71l-250 249l-250 -249l-74 71l252 250l-252 252l74 72l250 -252l250 252l71 -72z"></glyph>
      <glyph glyph-name="Oslash" unicode="Ø" d="M221 -27q-27 0 -48 20.5t-26 45.5l121 149q-162 180 -162 447q0 301 186.5 507t461.5 206q208 0 370 -107l86 107q29 0 49.5 -18.5t24.5 -43.5l-84 -104q211 -191 211 -508q0 -307 -181 -500.5t-474 -193.5q-240 0 -416 140zM727 1257q-168 0 -289 -144t-121 -443 q0 -191 72 -334l653 804q-119 117 -315 117zM1103 1062l-659 -814q67 -87 159 -132.5t194 -45.5q180 0 291.5 148.5t111.5 416.5q0 270 -97 427z"></glyph>
      <glyph glyph-name="Ugrave" unicode="Ù" d="M1114 911q0 264 -20 410l4 6q37 -6 71.5 -6t71.5 6l4 -6q-20 -135 -20 -410v-307q0 -299 -120 -461.5t-415 -162.5q-80 0 -154.5 21.5t-151.5 72.5t-124 156.5t-47 252.5v428q0 264 -20 410l4 6q37 -6 104.5 -6t104.5 6l4 -6q-20 -135 -21 -410v-360q0 -457 344 -457 q100 0 172 29t112 71t62.5 109.5t28.5 125.5t6 138v344zM688 1675l248 -172q31 -23 31 -43q0 -12 -9.5 -21t-21.5 -9q-31 0 -88 24l-316 129q64 61 156 92z"></glyph>
      <glyph glyph-name="Uacute" unicode="Ú" d="M1114 911q0 264 -20 410l4 6q37 -6 71.5 -6t71.5 6l4 -6q-20 -135 -20 -410v-307q0 -299 -120 -461.5t-415 -162.5q-80 0 -154.5 21.5t-151.5 72.5t-124 156.5t-47 252.5v428q0 264 -20 410l4 6q37 -6 104.5 -6t104.5 6l4 -6q-20 -135 -21 -410v-360q0 -457 344 -457 q100 0 172 29t112 71t62.5 109.5t28.5 125.5t6 138v344zM870 1677q88 -41 127 -106l-295 -119q-57 -25 -86 -25q-31 0 -30 31q0 23 30 43z"></glyph>
      <glyph glyph-name="Ucircumflex" unicode="Û" d="M1114 911q0 264 -20 410l4 6q37 -6 71.5 -6t71.5 6l4 -6q-20 -135 -20 -410v-307q0 -299 -120 -461.5t-415 -162.5q-80 0 -154.5 21.5t-151.5 72.5t-124 156.5t-47 252.5v428q0 264 -20 410l4 6q37 -6 104.5 -6t104.5 6l4 -6q-20 -135 -21 -410v-360q0 -457 344 -457 q100 0 172 29t112 71t62.5 109.5t28.5 125.5t6 138v344zM819 1649q84 -100 207 -193l-33 -43q-127 59 -217 127q-102 -76 -219 -127l-29 43q88 66 203 193h88z"></glyph>
      <glyph glyph-name="Udieresis" unicode="Ü" d="M492 1452q0 39 26.5 65.5t65.5 26.5t65.5 -26.5t26.5 -65.5t-26.5 -65.5t-65.5 -26.5t-65.5 26.5t-26.5 65.5zM848 1452q0 39 26.5 65.5t65.5 26.5t65.5 -26.5t26.5 -65.5t-26.5 -65.5t-65.5 -26.5t-65.5 26.5t-26.5 65.5zM1114 911q0 264 -20 410l4 6q37 -6 71.5 -6 t71.5 6l4 -6q-20 -135 -20 -410v-307q0 -299 -120 -461.5t-415 -162.5q-80 0 -154.5 21.5t-151.5 72.5t-124 156.5t-47 252.5v428q0 264 -20 410l4 6q37 -6 104.5 -6t104.5 6l4 -6q-20 -135 -21 -410v-360q0 -457 344 -457q100 0 172 29t112 71t62.5 109.5t28.5 125.5t6 138 v344z"></glyph>
      <glyph glyph-name="Yacute" unicode="Ý" d="M682 584q4 -475 14 -590q-37 6 -102.5 6t-101.5 -6q14 158 14 569q-61 104 -237.5 390t-235.5 374q51 -6 117 -6q63 0 116 6q49 -96 359 -631q229 360 358 631q37 -6 86 -6q45 0 86 6q-63 -98 -161.5 -246.5t-140.5 -213t-91 -144.5t-80 -139zM737 1679q88 -41 127 -106 l-295 -119q-57 -25 -86 -24q-31 0 -30 30q0 23 30 43z"></glyph>
      <glyph glyph-name="Thorn" unicode="Þ" d="M213 911q0 264 -20 410l4 6q37 -6 104.5 -6t104.5 6l4 -6q-14 -93 -19 -247q71 4 178 3q133 0 230.5 -36.5t143.5 -97t66.5 -120t20.5 -121.5q0 -49 -15.5 -101t-52 -106.5t-91 -96.5t-140.5 -69.5t-190 -27.5q-107 0 -151 13q3 -192 20 -314l-4 -6q-37 6 -105 6t-104 -6 l-4 6q20 139 20 410v501zM389 394q16 -4 52 -6.5t89 -2.5q299 0 299 317q0 291 -262 291q-96 0 -178 -21v-61v-501v-16z"></glyph>
      <glyph glyph-name="germandbls" unicode="ß" d="M707 -20q-121 0 -213 57l-2 6q14 25 38 119l23 2q18 -35 65.5 -69t88.5 -34q135 0 135 238q0 133 -79 273.5t-208 238.5v27q104 80 144 153.5t40 184.5q0 172 -159 172q-45 0 -79 -14.5t-56.5 -34t-38 -58.5t-23.5 -67.5t-11 -85t-4 -88t-1 -95.5v-495q0 -283 18 -410 l-4 -6q-37 6 -96.5 6t-96.5 -6l-4 6q18 125 19 410v350q0 18 -5 23t-20 5h-86q-20 0 -16 17l14 53q6 20 47 21q45 0 55.5 17t10.5 81q0 121 38 213t99 141t126.5 74t131.5 25q147 0 225 -71t78 -157q0 -117 -46 -196.5t-157 -163.5v-4q139 -92 231.5 -221.5t92.5 -282.5 q0 -159 -68 -248q-82 -106 -247 -106z"></glyph>
      <glyph glyph-name="agrave" unicode="à" d="M401 1374l144 -258q12 -25 12 -49q0 -8 -9 -15.5t-22 -7.5q-16 0 -59 41l-234 224l5 22q63 47 133 47q14 0 30 -4zM635 461l-174 -47q-113 -31 -158 -81t-45 -124q0 -49 42 -87t110 -38q82 0 188 80q29 20 29 53zM635 98h-8q-82 -70 -138.5 -94t-140.5 -24 q-119 0 -187.5 55t-68.5 166q0 104 91 183t249 114l191 43q14 4 14 24q0 66 -14.5 114t-33 71.5t-49 37t-51 16.5t-49.5 3q-117 0 -225 -174l-27 2l-34 137l6 8q141 119 301 119q338 0 338 -332q0 -7 -1 -49.5t-2 -91t-2 -98.5t-1 -70q0 -129 34 -160q17 -15 60 -15 q25 0 55 11l16 -51q-60 -63 -163 -63q-58 0 -100.5 30t-59.5 88z"></glyph>
      <glyph glyph-name="aacute" unicode="á" d="M500 1374q12 4 28 4q63 0 113 -47l6 -22l-235 -224q-39 -39 -62 -38q-10 0 -19 8t-9 18q0 20 23 57zM635 461l-174 -47q-113 -31 -158 -81t-45 -124q0 -49 42 -87t110 -38q82 0 188 80q29 20 29 53zM635 98h-8q-82 -70 -138.5 -94t-140.5 -24q-119 0 -187.5 55t-68.5 166 q0 104 91 183t249 114l191 43q14 4 14 24q0 66 -14.5 114t-33 71.5t-49 37t-51 16.5t-49.5 3q-117 0 -225 -174l-27 2l-34 137l6 8q141 119 301 119q338 0 338 -332q0 -7 -1 -49.5t-2 -91t-2 -98.5t-1 -70q0 -129 34 -160q17 -15 60 -15q25 0 55 11l16 -51q-60 -63 -163 -63 q-58 0 -100.5 30t-59.5 88z"></glyph>
      <glyph glyph-name="acircumflex" unicode="â" d="M492 1323q68 -109 206 -264l-43 -29q-145 106 -217 184q-90 -92 -219 -184l-41 29q147 164 211 264h103zM635 461l-174 -47q-113 -31 -158 -81t-45 -124q0 -49 42 -87t110 -38q82 0 188 80q29 20 29 53zM635 98h-8q-82 -70 -138.5 -94t-140.5 -24q-119 0 -187.5 55 t-68.5 166q0 104 91 183t249 114l191 43q14 4 14 24q0 66 -14.5 114t-33 71.5t-49 37t-51 16.5t-49.5 3q-117 0 -225 -174l-27 2l-34 137l6 8q141 119 301 119q338 0 338 -332q0 -7 -1 -49.5t-2 -91t-2 -98.5t-1 -70q0 -129 34 -160q17 -15 60 -15q25 0 55 11l16 -51 q-60 -63 -163 -63q-58 0 -100.5 30t-59.5 88z"></glyph>
      <glyph glyph-name="atilde" unicode="ã" d="M580 1167q35 0 58.5 22.5t43.5 84.5l49 -12q-37 -184 -178 -185q-51 0 -131 53q-74 45 -111 46q-39 0 -61.5 -24t-38.5 -75l-49 10q23 92 60.5 137.5t103 45.5t147.5 -58q60 -45 107 -45zM635 461l-174 -47q-113 -31 -158 -81t-45 -124q0 -49 42 -87t110 -38q82 0 188 80 q29 20 29 53zM635 98h-8q-82 -70 -138.5 -94t-140.5 -24q-119 0 -187.5 55t-68.5 166q0 104 91 183t249 114l191 43q14 4 14 24q0 66 -14.5 114t-33 71.5t-49 37t-51 16.5t-49.5 3q-117 0 -225 -174l-27 2l-34 137l6 8q141 119 301 119q338 0 338 -332q0 -7 -1 -49.5t-2 -91 t-2 -98.5t-1 -70q0 -129 34 -160q17 -15 60 -15q25 0 55 11l16 -51q-60 -63 -163 -63q-58 0 -100.5 30t-59.5 88z"></glyph>
      <glyph glyph-name="adieresis" unicode="ä" d="M170 1176q0 41 28.5 69.5t67.5 28.5t67.5 -28.5t28.5 -69.5t-27.5 -69t-68.5 -28t-68.5 28t-27.5 69zM516 1176q0 41 28.5 69.5t67.5 28.5t68 -28.5t29 -69.5t-29 -69t-68 -28t-67.5 28t-28.5 69zM635 461l-174 -47q-113 -31 -158 -81t-45 -124q0 -49 42 -87t110 -38 q82 0 188 80q29 20 29 53zM635 98h-8q-82 -70 -138.5 -94t-140.5 -24q-119 0 -187.5 55t-68.5 166q0 104 91 183t249 114l191 43q14 4 14 24q0 66 -14.5 114t-33 71.5t-49 37t-51 16.5t-49.5 3q-117 0 -225 -174l-27 2l-34 137l6 8q141 119 301 119q338 0 338 -332 q0 -7 -1 -49.5t-2 -91t-2 -98.5t-1 -70q0 -129 34 -160q17 -15 60 -15q25 0 55 11l16 -51q-60 -63 -163 -63q-58 0 -100.5 30t-59.5 88z"></glyph>
      <glyph glyph-name="aring" unicode="å" d="M430 1307q-47 0 -74.5 -34t-27.5 -81q0 -45 28.5 -80t73.5 -35t73.5 35t28.5 80q0 49 -28.5 82t-73.5 33zM252 1192q0 70 53 120t125 50t125 -49t53 -121q0 -70 -52 -120t-126 -50q-72 0 -125 50t-53 120zM635 461l-174 -47q-113 -31 -158 -81t-45 -124q0 -49 42 -87 t110 -38q82 0 188 80q29 20 29 53zM635 98h-8q-82 -70 -138.5 -94t-140.5 -24q-119 0 -187.5 55t-68.5 166q0 104 91 183t249 114l191 43q14 4 14 24q0 66 -14.5 114t-33 71.5t-49 37t-51 16.5t-49.5 3q-117 0 -225 -174l-27 2l-34 137l6 8q141 119 301 119q338 0 338 -332 q0 -7 -1 -49.5t-2 -91t-2 -98.5t-1 -70q0 -129 34 -160q17 -15 60 -15q25 0 55 11l16 -51q-60 -63 -163 -63q-58 0 -100.5 30t-59.5 88z"></glyph>
      <glyph glyph-name="ae" unicode="æ" d="M606 440q-358 -33 -358 -223q0 -135 145 -135q59 0 114.5 32.5t76.5 90.5q22 63 22 235zM768 528q53 2 110.5 3t91.5 1t68.5 2.5t53 6.5t34 14t20.5 27.5t5 44.5q0 59 -41 119.5t-109 60.5q-96 0 -158.5 -74t-74.5 -205zM414 807q-63 0 -125 -52.5t-107 -129.5l-26 2 l-33 137l6 8q152 127 303 127q201 0 281 -143q104 143 291 143q82 0 147.5 -30.5t100 -77t53 -87t18.5 -71.5q0 -102 -53 -148q-33 -18 -89.5 -23t-189.5 -8t-225 -8q0 -162 69.5 -259t184.5 -97q133 0 252 139l41 -57q-45 -84 -133 -138t-189 -54q-66 0 -117 13t-86.5 39.5 t-51 42t-40.5 46.5q-147 -141 -307 -141q-309 0 -309 227q0 131 135 214t391 101q-2 152 -42.5 218.5t-149.5 66.5z"></glyph>
      <glyph glyph-name="ccedilla" unicode="ç" d="M477 -193q-53 0 -92 -12l-12 12l72 175q-169 15 -268 139.5t-99 324.5q0 199 133 326t303 127q162 0 272 -57l5 -6l-48 -168l-26 -2q-88 152 -205 151q-106 0 -180 -98t-74 -262q0 -174 75 -274.5t191 -100.5q123 0 219 86h9l39 -43q-56 -71 -123.5 -106t-152.5 -39 l-42 -113q25 6 53 6q63 0 104.5 -35t41.5 -92q0 -66 -62.5 -109t-156.5 -43q-72 0 -152 35q0 33 21 54q78 -29 118 -29q47 0 76 21.5t29 60.5q0 71 -68 71z"></glyph>
      <glyph glyph-name="egrave" unicode="è" d="M430 1374l143 -258q12 -25 13 -49q0 -8 -9.5 -15.5t-21.5 -7.5q-16 0 -59 41l-234 224l4 22q63 47 133 47q15 0 31 -4zM256 559h377q29 0 29 29q0 106 -54.5 167.5t-118.5 61.5q-23 0 -52 -11t-67 -37t-70 -81t-44 -129zM803 213l41 -51q-59 -82 -153.5 -132t-203.5 -50 q-213 0 -325 135q-92 111 -92 313q0 213 130 342t289 129q184 0 269.5 -116.5t85.5 -270.5q0 -35 -37 -35h-557q0 -182 49 -260q74 -117 223 -117q177 0 281 113z"></glyph>
      <glyph glyph-name="eacute" unicode="é" d="M553 1374q12 4 29 4q63 0 112 -47l6 -22l-235 -224q-39 -39 -62 -38q-10 0 -19 8t-9 18q0 20 23 57zM256 559h377q29 0 29 29q0 106 -54.5 167.5t-118.5 61.5q-23 0 -52 -11t-67 -37t-70 -81t-44 -129zM803 213l41 -51q-59 -82 -153.5 -132t-203.5 -50q-213 0 -325 135 q-92 111 -92 313q0 213 130 342t289 129q184 0 269.5 -116.5t85.5 -270.5q0 -35 -37 -35h-557q0 -182 49 -260q74 -117 223 -117q177 0 281 113z"></glyph>
      <glyph glyph-name="ecircumflex" unicode="ê" d="M528 1323q68 -109 207 -264l-43 -29q-145 106 -217 184q-90 -92 -219 -184l-41 29q147 164 211 264h102zM256 559h377q29 0 29 29q0 106 -54.5 167.5t-118.5 61.5q-23 0 -52 -11t-67 -37t-70 -81t-44 -129zM803 213l41 -51q-59 -82 -153.5 -132t-203.5 -50 q-213 0 -325 135q-92 111 -92 313q0 213 130 342t289 129q184 0 269.5 -116.5t85.5 -270.5q0 -35 -37 -35h-557q0 -182 49 -260q74 -117 223 -117q177 0 281 113z"></glyph>
      <glyph glyph-name="edieresis" unicode="ë" d="M203 1176q0 41 28.5 69.5t67.5 28.5t67.5 -28.5t28.5 -69.5t-27.5 -69t-68.5 -28t-68.5 28t-27.5 69zM549 1176q0 41 28.5 69.5t67.5 28.5t67.5 -28.5t28.5 -69.5t-28.5 -69t-67.5 -28t-67.5 28t-28.5 69zM256 559h377q29 0 29 29q0 106 -54.5 167.5t-118.5 61.5 q-23 0 -52 -11t-67 -37t-70 -81t-44 -129zM803 213l41 -51q-59 -82 -153.5 -132t-203.5 -50q-213 0 -325 135q-92 111 -92 313q0 213 130 342t289 129q184 0 269.5 -116.5t85.5 -270.5q0 -35 -37 -35h-557q0 -182 49 -260q74 -117 223 -117q177 0 281 113z"></glyph>
      <glyph glyph-name="igrave" unicode="ì" d="M225 1374l144 -258q12 -25 12 -49q0 -8 -9.5 -15.5t-21.5 -7.5q-16 0 -59 41l-234 224l4 22q63 47 134 47q14 0 30 -4zM184 481q0 272 -18 398l4 6q88 -6 178 2q12 0 15.5 -3t3.5 -18q-18 -172 -19 -352v-145q0 -223 19 -369l-5 -6q-37 6 -96 6t-96 -6l-4 6 q18 137 18 369v112z"></glyph>
      <glyph glyph-name="iacute" unicode="í" d="M356 1374q12 4 29 4q63 0 113 -47l6 -22l-236 -224q-39 -39 -61 -38q-10 0 -19.5 8t-9.5 18q0 20 24 57zM184 481q0 272 -18 398l4 6q88 -6 178 2q12 0 15.5 -3t3.5 -18q-18 -172 -19 -352v-145q0 -223 19 -369l-5 -6q-37 6 -96 6t-96 -6l-4 6q18 137 18 369v112z"></glyph>
      <glyph glyph-name="icircumflex" unicode="î" d="M330 1323q68 -109 207 -264l-43 -29q-145 106 -218 184q-90 -92 -219 -184l-41 29q147 164 211 264h103zM184 481q0 272 -18 398l4 6q88 -6 178 2q12 0 15.5 -3t3.5 -18q-18 -172 -19 -352v-145q0 -223 19 -369l-5 -6q-37 6 -96 6t-96 -6l-4 6q18 137 18 369v112z"></glyph>
      <glyph glyph-name="idieresis" unicode="ï" d="M10 1176q0 41 29 69.5t67.5 28.5t67.5 -28.5t29 -69.5t-28 -69t-68.5 -28t-68.5 28t-28 69zM356 1176q0 41 29 69.5t68 28.5t67.5 -28.5t28.5 -69.5t-28.5 -69t-67.5 -28t-68 28t-29 69zM184 481q0 272 -18 398l4 6q88 -6 178 2q12 0 15.5 -3t3.5 -18q-18 -172 -19 -352 v-145q0 -223 19 -369l-5 -6q-37 6 -96 6t-96 -6l-4 6q18 137 18 369v112z"></glyph>
      <glyph glyph-name="eth" unicode="ð" d="M516 63q94 0 166 86.5t72 307.5q0 156 -33 272q-68 86 -209 86q-139 0 -198.5 -105.5t-59.5 -248.5q0 -172 75.5 -285t186.5 -113zM70 426q0 125 45 222t115.5 148.5t143 77t142.5 25.5q86 0 158 -29q-61 150 -185 301l-223 -149l-45 65l215 146l-33 33q-47 49 -145 118 l39 46q111 -59 217 -146l217 146l45 -66l-198 -133l36 -37q319 -319 320 -709q0 -244 -133 -374.5t-320 -130.5q-180 0 -295.5 137t-115.5 309z"></glyph>
      <glyph glyph-name="ntilde" unicode="ñ" d="M700 1167q35 0 58.5 22.5t44.5 84.5l49 -12q-37 -184 -178 -185q-51 0 -131 53q-74 45 -111 46q-39 0 -61.5 -24t-38.5 -75l-49 10q23 92 60.5 137.5t103 45.5t147.5 -58q59 -45 106 -45zM942 369q0 -233 19 -369l-5 -6q-37 6 -96 6t-96 -6l-4 6q18 137 18 369v200 q0 121 -32.5 164t-114.5 43q-63 0 -144 -41t-153 -127v-239q0 -238 18 -369l-4 -6q-37 6 -96 6t-96 -6l-4 6q18 125 18 369v112q0 283 -18 398l4 6q90 -8 166 6q12 0 12 -21v-149l4 -6q158 184 354 184q135 0 194.5 -80t59.5 -244q0 -33 -2 -103t-2 -103z"></glyph>
      <glyph glyph-name="ograve" unicode="ò" d="M479 1374l144 -258q12 -25 12 -49q0 -8 -9.5 -15.5t-21.5 -7.5q-16 0 -59 41l-234 224l4 22q63 47 134 47q14 0 30 -4zM78 420q0 217 120.5 348t321.5 131q205 0 315.5 -124t110.5 -337q0 -205 -116.5 -331.5t-317.5 -126.5q-199 0 -316.5 125t-117.5 315zM506 817 q-90 0 -148.5 -55t-79 -132t-20.5 -175q0 -92 20.5 -174t86 -151t165.5 -69q102 0 169 96.5t67 243.5q0 207 -54 311.5t-206 104.5z"></glyph>
      <glyph glyph-name="oacute" unicode="ó" d="M573 1374q12 4 29 4q63 0 113 -47l6 -22l-236 -224q-39 -39 -61 -38q-10 0 -19.5 8t-9.5 18q0 20 24 57zM78 420q0 217 120.5 348t321.5 131q205 0 315.5 -124t110.5 -337q0 -205 -116.5 -331.5t-317.5 -126.5q-199 0 -316.5 125t-117.5 315zM506 817q-90 0 -148.5 -55 t-79 -132t-20.5 -175q0 -92 20.5 -174t86 -151t165.5 -69q102 0 169 96.5t67 243.5q0 207 -54 311.5t-206 104.5z"></glyph>
      <glyph glyph-name="ocircumflex" unicode="ô" d="M567 1323q68 -109 207 -264l-43 -29q-145 106 -217 184q-90 -92 -219 -184l-41 29q147 164 211 264h102zM78 420q0 217 120.5 348t321.5 131q205 0 315.5 -124t110.5 -337q0 -205 -116.5 -331.5t-317.5 -126.5q-199 0 -316.5 125t-117.5 315zM506 817q-90 0 -148.5 -55 t-79 -132t-20.5 -175q0 -92 20.5 -174t86 -151t165.5 -69q102 0 169 96.5t67 243.5q0 207 -54 311.5t-206 104.5z"></glyph>
      <glyph glyph-name="otilde" unicode="õ" d="M643 1167q35 0 58.5 22.5t43.5 84.5l50 -12q-37 -184 -179 -185q-51 0 -131 53q-74 45 -110 46q-39 0 -61.5 -24t-39.5 -75l-49 10q23 92 61 137.5t103.5 45.5t147.5 -58q59 -45 106 -45zM78 420q0 217 120.5 348t321.5 131q205 0 315.5 -124t110.5 -337 q0 -205 -116.5 -331.5t-317.5 -126.5q-199 0 -316.5 125t-117.5 315zM506 817q-90 0 -148.5 -55t-79 -132t-20.5 -175q0 -92 20.5 -174t86 -151t165.5 -69q102 0 169 96.5t67 243.5q0 207 -54 311.5t-206 104.5z"></glyph>
      <glyph glyph-name="odieresis" unicode="ö" d="M229 1176q0 41 29 69.5t68 28.5t67.5 -28.5t28.5 -69.5t-28.5 -69t-67.5 -28t-68 28t-29 69zM575 1176q0 41 29 69.5t68 28.5t67.5 -28.5t28.5 -69.5t-27.5 -69t-68.5 -28t-69 28t-28 69zM78 420q0 217 120.5 348t321.5 131q205 0 315.5 -124t110.5 -337 q0 -205 -116.5 -331.5t-317.5 -126.5q-199 0 -316.5 125t-117.5 315zM506 817q-90 0 -148.5 -55t-79 -132t-20.5 -175q0 -92 20.5 -174t86 -151t165.5 -69q102 0 169 96.5t67 243.5q0 207 -54 311.5t-206 104.5z"></glyph>
      <glyph glyph-name="divide" unicode="÷" d="M447 751v7q12 35 33 56t60 37h7q70 -26 92 -93v-7q-9 -28 -21 -46t-29.5 -29t-41.5 -17h-7q-40 9 -61 29t-32 63zM447 203v6q23 64 93 93h7q38 -14 59 -35t33 -58v-6q-9 -28 -21 -46.5t-29.5 -29.5t-41.5 -17h-7q-40 9 -61 29.5t-32 63.5zM944 526v-100h-809v100h809z "></glyph>
      <glyph glyph-name="oslash" unicode="ø" d="M868 930l64 -47l-93 -113q107 -122 107 -332q0 -205 -116.5 -331.5t-317.5 -126.5q-151 0 -259 76l-93 -113l-62 53l93 113q-114 122 -113 311q0 217 120.5 348t321.5 131q157 0 261 -75zM506 817q-90 0 -148.5 -55t-79 -132t-20.5 -175q0 -26 2 -53t6.5 -55t12 -56.5 t17.5 -54.5l406 492q-62 89 -196 89zM739 648l-401 -489q71 -97 192 -98q102 0 169 96.5t67 243.5q0 160 -27 247z"></glyph>
      <glyph glyph-name="ugrave" unicode="ù" d="M467 1374l143 -258q12 -25 13 -49q0 -8 -9.5 -15.5t-21.5 -7.5q-16 0 -60 41l-233 224l4 22q63 47 133 47q15 0 31 -4zM748 188q-57 -88 -139.5 -148t-170.5 -60q-141 0 -204.5 81.5t-63.5 202.5v246q0 238 -18 369l4 6q37 -6 96 -6t96 6l4 -6q-18 -123 -18 -369v-203 q0 -129 36 -171t101 -42q72 0 150.5 64.5t130.5 150.5v201q0 233 -19 369l4 6q37 -6 96.5 -6t96.5 6l4 -6q-18 -123 -19 -369v-117q0 -207 35 -393l-4 -6q-41 6 -91 6q-24 0 -71 -6q-18 0 -18 6l-10 182z"></glyph>
      <glyph glyph-name="uacute" unicode="ú" d="M627 1374q12 4 28 4q63 0 113 -47l6 -22l-235 -224q-39 -39 -62 -38q-10 0 -19 8t-9 18q0 20 23 57zM748 188q-57 -88 -139.5 -148t-170.5 -60q-141 0 -204.5 81.5t-63.5 202.5v246q0 238 -18 369l4 6q37 -6 96 -6t96 6l4 -6q-18 -123 -18 -369v-203q0 -129 36 -171 t101 -42q72 0 150.5 64.5t130.5 150.5v201q0 233 -19 369l4 6q37 -6 96.5 -6t96.5 6l4 -6q-18 -123 -19 -369v-117q0 -207 35 -393l-4 -6q-41 6 -91 6q-24 0 -71 -6q-18 0 -18 6l-10 182z"></glyph>
      <glyph glyph-name="ucircumflex" unicode="û" d="M575 1323q68 -109 207 -264l-43 -29q-145 106 -217 184q-90 -92 -219 -184l-41 29q147 164 211 264h102zM748 188q-57 -88 -139.5 -148t-170.5 -60q-141 0 -204.5 81.5t-63.5 202.5v246q0 238 -18 369l4 6q37 -6 96 -6t96 6l4 -6q-18 -123 -18 -369v-203q0 -129 36 -171 t101 -42q72 0 150.5 64.5t130.5 150.5v201q0 233 -19 369l4 6q37 -6 96.5 -6t96.5 6l4 -6q-18 -123 -19 -369v-117q0 -207 35 -393l-4 -6q-41 6 -91 6q-24 0 -71 -6q-18 0 -18 6l-10 182z"></glyph>
      <glyph glyph-name="udieresis" unicode="ü" d="M270 1176q0 41 29 69.5t68 28.5t67.5 -28.5t28.5 -69.5t-28.5 -69t-67.5 -28t-68 28t-29 69zM616 1176q0 41 29 69.5t68 28.5t67.5 -28.5t28.5 -69.5t-27.5 -69t-68.5 -28t-69 28t-28 69zM748 188q-57 -88 -139.5 -148t-170.5 -60q-141 0 -204.5 81.5t-63.5 202.5v246 q0 238 -18 369l4 6q37 -6 96 -6t96 6l4 -6q-18 -123 -18 -369v-203q0 -129 36 -171t101 -42q72 0 150.5 64.5t130.5 150.5v201q0 233 -19 369l4 6q37 -6 96.5 -6t96.5 6l4 -6q-18 -123 -19 -369v-117q0 -207 35 -393l-4 -6q-41 6 -91 6q-24 0 -71 -6q-18 0 -18 6l-10 182z "></glyph>
      <glyph glyph-name="yacute" unicode="ý" d="M629 1374q12 4 28 4q63 0 113 -47l6 -22l-235 -224q-39 -39 -62 -38q-10 0 -19 8t-9 18q0 20 23 57zM57 885q29 -6 107 -6q74 0 100 6q68 -209 274 -706h4q138 294 269 706q20 -6 80 -6q68 0 88 6q-88 -178 -315.5 -691t-278.5 -679q-35 10 -100 10q-37 0 -72 -10 q147 248 242 465q-42 110 -398 905z"></glyph>
      <glyph glyph-name="thorn" unicode="þ" d="M334 627v-480q74 -88 174 -88q268 0 268 367q0 201 -69.5 285t-155.5 84q-57 0 -120.5 -45t-96.5 -123zM334 -66q0 -272 20 -409l-4 -6q-29 6 -98 6l-100 -6l-2 6q20 129 20 409v1053q0 272 -20 385l4 6q66 4 182 52q18 0 18 -21q-20 -164 -20 -385v-221l-2 -68 q39 63 108.5 113.5t163.5 50.5q147 0 258 -127t111 -291q0 -221 -135.5 -361t-319.5 -140q-100 0 -184 45v-91z"></glyph>
      <glyph glyph-name="ydieresis" unicode="ÿ" d="M270 1176q0 41 29 69.5t68 28.5t67.5 -28.5t28.5 -69.5t-28.5 -69t-67.5 -28t-68 28t-29 69zM616 1176q0 41 29 69.5t68 28.5t67.5 -28.5t28.5 -69.5t-27.5 -69t-68.5 -28t-69 28t-28 69zM57 885q29 -6 107 -6q74 0 100 6q68 -209 274 -706h4q138 294 269 706 q20 -6 80 -6q68 0 88 6q-88 -178 -315.5 -691t-278.5 -679q-35 10 -100 10q-37 0 -72 -10q147 248 242 465q-42 110 -398 905z"></glyph>
      <glyph glyph-name="Amacron" unicode="Ā" d="M909 1487h-499q-27 0 -27 31q0 18 14.5 38.5t30.5 20.5h502q29 0 28 -29q0 -20 -15.5 -40.5t-33.5 -20.5zM834 564q-44 115 -95.5 241t-111.5 264h-4l-216 -504q24 0 102 -2t112 -2q87 0 213 3zM367 468q-59 -145 -103 -265t-67 -209q-25 6 -93 6q-47 0 -71 -6 q348 764 604 1354h57q70 -166 198 -483.5t223 -549t140 -321.5q-35 6 -122 6q-68 0 -103 -6q-4 14 -9.5 32.5t-15 50t-22.5 71t-29 87t-37.5 108.5t-45.5 125q-67 2 -127 2.5t-113 0.5q-117 0 -264 -3z"></glyph>
      <glyph glyph-name="amacron" unicode="ā" d="M680 1102h-500q-27 0 -26 31q0 18 14 38.5t31 20.5h501q29 0 29 -29q0 -20 -15.5 -40.5t-33.5 -20.5zM635 461l-174 -47q-113 -31 -158 -81t-45 -124q0 -49 42 -87t110 -38q82 0 188 80q29 20 29 53zM635 98h-8q-82 -70 -138.5 -94t-140.5 -24q-119 0 -187.5 55 t-68.5 166q0 104 91 183t249 114l191 43q14 4 14 24q0 66 -14.5 114t-33 71.5t-49 37t-51 16.5t-49.5 3q-117 0 -225 -174l-27 2l-34 137l6 8q141 119 301 119q338 0 338 -332q0 -7 -1 -49.5t-2 -91t-2 -98.5t-1 -70q0 -129 34 -160q17 -15 60 -15q25 0 55 11l16 -51 q-60 -63 -163 -63q-58 0 -100.5 30t-59.5 88z"></glyph>
      <glyph glyph-name="Abreve" unicode="Ă" d="M934 1647q-8 -104 -90 -168t-189 -64q-115 0 -192.5 62.5t-85.5 169.5h57q12 -57 74.5 -91t146.5 -34q80 0 145.5 33.5t76.5 91.5h57zM834 564q-44 115 -95.5 241t-111.5 264h-4l-216 -504q24 0 102 -2t112 -2q87 0 213 3zM367 468q-59 -145 -103 -265t-67 -209 q-25 6 -93 6q-47 0 -71 -6q348 764 604 1354h57q70 -166 198 -483.5t223 -549t140 -321.5q-35 6 -122 6q-68 0 -103 -6q-4 14 -9.5 32.5t-15 50t-22.5 71t-29 87t-37.5 108.5t-45.5 125q-67 2 -127 2.5t-113 0.5q-117 0 -264 -3z"></glyph>
      <glyph glyph-name="abreve" unicode="ă" d="M201 1325q16 -82 77.5 -133t143.5 -51t144.5 49t76.5 135l55 -25q-18 -127 -99 -201.5t-177 -74.5q-109 0 -182.5 72.5t-94.5 203.5zM635 461l-174 -47q-113 -31 -158 -81t-45 -124q0 -49 42 -87t110 -38q82 0 188 80q29 20 29 53zM635 98h-8q-82 -70 -138.5 -94 t-140.5 -24q-119 0 -187.5 55t-68.5 166q0 104 91 183t249 114l191 43q14 4 14 24q0 66 -14.5 114t-33 71.5t-49 37t-51 16.5t-49.5 3q-117 0 -225 -174l-27 2l-34 137l6 8q141 119 301 119q338 0 338 -332q0 -7 -1 -49.5t-2 -91t-2 -98.5t-1 -70q0 -129 34 -160 q17 -15 60 -15q25 0 55 11l16 -51q-60 -63 -163 -63q-58 0 -100.5 30t-59.5 88z"></glyph>
      <glyph glyph-name="Aogonek" unicode="Ą" d="M1116 -334q-94 -115 -203 -115q-76 0 -118.5 42t-42.5 114q0 169 262 344q-54 180 -143 417q-67 2 -127 2.5t-113 0.5q-117 0 -264 -3q-59 -145 -103 -265t-67 -209q-25 6 -93 6q-47 0 -71 -6q348 764 604 1354h57q70 -166 198 -483.5t223 -549t140 -321.5q-35 6 -122 6 q-17 0 -49.5 -2.5t-48.5 -2.5q-78 -79 -113 -137.5t-35 -127.5q0 -35 23.5 -61.5t62.5 -26.5q51 0 108 61l6 -2zM834 564q-44 115 -95.5 241t-111.5 264h-4l-216 -504q24 0 102 -2t112 -2q87 0 213 3z"></glyph>
      <glyph glyph-name="aogonek" unicode="ą" d="M911 -313q-94 -115 -202 -115q-76 0 -119 42t-43 114q0 30 8.5 60.5t23 58t36 55t45 51t51.5 46.5q-27 15 -46.5 40t-29.5 59h-8q-82 -70 -138.5 -94t-140.5 -24q-119 0 -187.5 55t-68.5 166q0 104 91 183t249 114l191 43q14 4 14 24q0 66 -14.5 114t-33 71.5t-49 37 t-51 16.5t-49.5 3q-117 0 -225 -174l-27 2l-34 137l6 8q141 119 301 119q338 0 338 -332q0 -7 -1 -49.5t-2 -91t-2 -98.5t-1 -70q0 -129 34 -160q17 -15 60 -15q25 0 55 11l16 -51q-60 -63 -162 -63q-59 -63 -86.5 -115.5t-27.5 -114.5q0 -35 23.5 -61.5t62.5 -26.5 q51 0 109 62l6 -3zM635 461l-174 -47q-113 -31 -158 -81t-45 -124q0 -49 42 -87t110 -38q82 0 188 80q29 20 29 53z"></glyph>
      <glyph glyph-name="Cacute" unicode="Ć" d="M874 1679q88 -41 127 -106l-294 -119q-57 -25 -86 -24q-31 0 -31 30q0 23 31 43zM778 1348q111 0 222.5 -22.5t167.5 -46.5l57 -24l4 -6q-35 -147 -41 -227l-21 -2q-115 231 -417 231q-68 0 -139.5 -31.5t-139.5 -95t-111 -178.5t-43 -262q0 -156 50.5 -289t160 -222 t260.5 -89q141 0 233.5 45t203.5 166l49 -39q-211 -276 -504 -276q-211 0 -365.5 99t-226.5 247.5t-72 318.5q0 295 203 499t469 204z"></glyph>
      <glyph glyph-name="cacute" unicode="ć" d="M549 1374q12 4 29 4q63 0 112 -47l6 -22l-235 -224q-39 -39 -62 -38q-10 0 -19 8t-9 18q0 20 23 57zM512 817q-106 0 -180 -98t-74 -262q0 -174 75 -274.5t191 -100.5q123 0 219 86h9l39 -43q-115 -145 -302 -145q-188 0 -299.5 126.5t-111.5 339.5q0 199 133 326 t303 127q162 0 272 -57l5 -6l-48 -168l-26 -2q-88 151 -205 151z"></glyph>
      <glyph glyph-name="Ccircumflex" unicode="Ĉ" d="M774 1651q84 -100 207 -193l-33 -43q-127 59 -217 127q-102 -76 -219 -127l-29 43q88 66 203 193h88zM778 1348q111 0 222.5 -22.5t167.5 -46.5l57 -24l4 -6q-35 -147 -41 -227l-21 -2q-115 231 -417 231q-68 0 -139.5 -31.5t-139.5 -95t-111 -178.5t-43 -262 q0 -156 50.5 -289t160 -222t260.5 -89q141 0 233.5 45t203.5 166l49 -39q-211 -276 -504 -276q-211 0 -365.5 99t-226.5 247.5t-72 318.5q0 295 203 499t469 204z"></glyph>
      <glyph glyph-name="ccircumflex" unicode="ĉ" d="M535 1323q68 -109 206 -264l-43 -29q-145 106 -217 184q-90 -92 -219 -184l-41 29q147 164 211 264h103zM510 817q-106 0 -180 -98t-74 -262q0 -174 75 -274.5t191 -100.5q123 0 219 86h9l38 -43q-115 -145 -301 -145q-188 0 -299.5 126.5t-111.5 339.5q0 199 133 326 t303 127q162 0 272 -57l4 -6l-47 -168l-26 -2q-88 151 -205 151z"></glyph>
      <glyph glyph-name="Cdotaccent" unicode="Ċ" d="M623 1599q0 43 31.5 75t74.5 32t75 -32t32 -75t-32 -74.5t-75 -31.5t-74.5 31.5t-31.5 74.5zM778 1348q111 0 222.5 -22.5t167.5 -46.5l57 -24l4 -6q-35 -147 -41 -227l-21 -2q-115 231 -417 231q-68 0 -139.5 -31.5t-139.5 -95t-111 -178.5t-43 -262q0 -156 50.5 -289 t160 -222t260.5 -89q141 0 233.5 45t203.5 166l49 -39q-211 -276 -504 -276q-211 0 -365.5 99t-226.5 247.5t-72 318.5q0 295 203 499t469 204z"></glyph>
      <glyph glyph-name="cdotaccent" unicode="ċ" d="M393 1223q0 41 32 72.5t73 31.5t72.5 -31.5t31.5 -72.5t-31.5 -73t-72.5 -32t-73 32t-32 73zM512 817q-106 0 -180 -98t-74 -262q0 -174 75 -274.5t191 -100.5q123 0 219 86h9l39 -43q-115 -145 -302 -145q-188 0 -299.5 126.5t-111.5 339.5q0 199 133 326t303 127 q162 0 272 -57l5 -6l-48 -168l-26 -2q-88 151 -205 151z"></glyph>
      <glyph glyph-name="Ccaron" unicode="Č" d="M682 1427q-74 92 -207 195l33 41q123 -53 217 -125q117 82 219 125l31 -41q-102 -78 -205 -195h-88zM778 1348q111 0 222.5 -22.5t167.5 -46.5l57 -24l4 -6q-35 -147 -41 -227l-21 -2q-115 231 -417 231q-68 0 -139.5 -31.5t-139.5 -95t-111 -178.5t-43 -262 q0 -156 50.5 -289t160 -222t260.5 -89q141 0 233.5 45t203.5 166l49 -39q-211 -276 -504 -276q-211 0 -365.5 99t-226.5 247.5t-72 318.5q0 295 203 499t469 204z"></glyph>
      <glyph glyph-name="ccaron" unicode="č" d="M442 1028q-78 127 -206 266l40 27q145 -106 218 -184q78 80 221 184l39 -27q-137 -154 -209 -266h-103zM512 817q-106 0 -180 -98t-74 -262q0 -174 75 -274.5t191 -100.5q123 0 219 86h9l39 -43q-115 -145 -302 -145q-188 0 -299.5 126.5t-111.5 339.5q0 199 133 326 t303 127q162 0 272 -57l5 -6l-48 -168l-26 -2q-88 151 -205 151z"></glyph>
      <glyph glyph-name="Dcaron" unicode="Ď" d="M596 1427q-74 92 -207 195l33 41q123 -53 217 -125q117 82 219 125l31 -41q-102 -78 -205 -195h-88zM389 168q0 -51 39 -66.5t184 -15.5q119 0 206 20.5t163 71.5t116 152.5t40 251.5q0 127 -29 236.5t-92.5 207.5t-179 154.5t-275.5 56.5q-86 0 -129 -16.5t-43 -65.5 v-987zM301 1321q66 0 169 3t169 3q295 0 502 -204.5t207 -491.5q0 -145 -43 -259t-110 -182.5t-158 -113.5t-179 -62.5t-182 -17.5q-115 0 -213 2t-162 2l-106 -6l-2 6q20 139 20 410v501q0 264 -20 410l4 6q34 -6 104 -6z"></glyph>
      <glyph glyph-name="dcaron" unicode="ď" d="M1092 1430q55 0 88.5 -45.5t33.5 -104.5q0 -66 -55 -136.5t-153 -80.5l-11 35q59 12 94 56t35 85q0 43 -28 43q-94 0 -95 78q0 27 24 48.5t67 21.5zM739 231v467q-39 61 -82 90t-112 29q-43 0 -84 -15.5t-84 -51t-68.5 -112.5t-25.5 -185q0 -182 57 -274.5t147 -92.5 q137 0 252 145zM739 119q-109 -139 -264 -139q-164 0 -267.5 132t-103.5 324q0 207 130.5 335t332.5 128q92 0 172 -45v133q0 293 -18 395l4 7q92 6 178 41q18 0 19 -21q-18 -227 -19 -385v-631q0 -207 35 -393l-4 -6q-41 6 -91 6q-24 0 -71 -6q-18 0 -18 6l-11 119h-4z"></glyph>
      <glyph glyph-name="Dcroat" unicode="Đ" d="M389 168q0 -51 39 -66.5t184 -15.5q119 0 206 20.5t163 71.5t116 152.5t40 251.5q0 127 -29 236.5t-92.5 207.5t-179 154.5t-275.5 56.5q-86 0 -129 -16.5t-43 -65.5v-485h316v-82h-316v-420zM301 1321q66 0 169 3t169 3q295 0 502 -204.5t207 -491.5q0 -145 -43 -259 t-110 -182.5t-158 -113.5t-179 -62.5t-182 -17.5q-115 0 -213 2t-162 2l-106 -6l-2 6q20 139 20 410v178h-178v82h178v241q0 264 -20 410l4 6q34 -6 104 -6z"></glyph>
      <glyph glyph-name="dcroat" unicode="đ" d="M1100 1171l2 -79h-198q0 -16 -0.5 -33t-0.5 -35v-631q0 -207 35 -393l-4 -6q-41 6 -91 6q-24 0 -71 -6q-18 0 -18 6l-11 119h-4q-109 -139 -264 -139q-164 0 -267.5 132t-103.5 324q0 207 130.5 335t332.5 128q92 0 172 -45v133v52.5v52.5h-245v79h243q-4 139 -16 211 l4 7q92 6 178 41q18 0 19 -21q-12 -151 -16 -238h194zM739 231v467q-39 61 -82 90t-112 29q-43 0 -84 -15.5t-84 -51t-68.5 -112.5t-25.5 -185q0 -182 57 -274.5t147 -92.5q137 0 252 145z"></glyph>
      <glyph glyph-name="Emacron" unicode="Ē" d="M788 1501h-499q-27 0 -27 31q0 18 14.5 38.5t30.5 20.5h502q29 0 29 -28q0 -20 -16 -41t-34 -21zM389 410q0 -240 17 -295q123 0 267 6t227 12l83 6l4 -8q-4 -33 -4 -68q0 -6 4 -63l-4 -6q-49 6 -123 6h-559l-106 -6l-2 6q20 139 20 410v501q0 264 -20 410l4 6 q35 -6 104 -6h539q74 0 123 6l4 -6q-4 -57 -4 -77.5t4 -53.5l-4 -8q-283 25 -557 24q-16 -55 -17 -295v-159q215 0 457 20l6 -6q-6 -29 -6 -65.5t6 -65.5l-6 -6q-203 20 -457 20v-239z"></glyph>
      <glyph glyph-name="emacron" unicode="ē" d="M711 1102h-500q-27 0 -27 31q0 18 14.5 38.5t30.5 20.5h502q29 0 29 -29q0 -20 -15.5 -40.5t-33.5 -20.5zM256 559h377q29 0 29 29q0 106 -54.5 167.5t-118.5 61.5q-23 0 -52 -11t-67 -37t-70 -81t-44 -129zM803 213l41 -51q-59 -82 -153.5 -132t-203.5 -50 q-213 0 -325 135q-92 111 -92 313q0 213 130 342t289 129q184 0 269.5 -116.5t85.5 -270.5q0 -35 -37 -35h-557q0 -182 49 -260q74 -117 223 -117q177 0 281 113z"></glyph>
      <glyph glyph-name="Ebreve" unicode="Ĕ" d="M852 1645q-8 -104 -90 -168t-189 -64q-115 0 -192.5 62.5t-85.5 169.5h57q12 -57 74.5 -91t146.5 -34q80 0 145.5 33.5t76.5 91.5h57zM389 410q0 -240 17 -295q123 0 267 6t227 12l83 6l4 -8q-4 -33 -4 -68q0 -6 4 -63l-4 -6q-49 6 -123 6h-559l-106 -6l-2 6 q20 139 20 410v501q0 264 -20 410l4 6q35 -6 104 -6h539q74 0 123 6l4 -6q-4 -57 -4 -77.5t4 -53.5l-4 -8q-283 25 -557 24q-16 -55 -17 -295v-159q215 0 457 20l6 -6q-6 -29 -6 -65.5t6 -65.5l-6 -6q-203 20 -457 20v-239z"></glyph>
      <glyph glyph-name="ebreve" unicode="ĕ" d="M246 1327q16 -82 77.5 -133t143.5 -51t144.5 49t76.5 135l55 -24q-18 -127 -99 -202t-177 -75q-109 0 -182.5 72.5t-94.5 204.5zM256 559h377q29 0 29 29q0 106 -54.5 167.5t-118.5 61.5q-23 0 -52 -11t-67 -37t-70 -81t-44 -129zM803 213l41 -51q-59 -82 -153.5 -132 t-203.5 -50q-213 0 -325 135q-92 111 -92 313q0 213 130 342t289 129q184 0 269.5 -116.5t85.5 -270.5q0 -35 -37 -35h-557q0 -182 49 -260q74 -117 223 -117q177 0 281 113z"></glyph>
      <glyph glyph-name="Edotaccent" unicode="Ė" d="M459 1599q0 43 31.5 75t74.5 32t75 -32t32 -75t-32 -74.5t-75 -31.5t-74.5 31.5t-31.5 74.5zM389 410q0 -240 17 -295q123 0 267 6t227 12l83 6l4 -8q-4 -33 -4 -68q0 -6 4 -63l-4 -6q-49 6 -123 6h-559l-106 -6l-2 6q20 139 20 410v501q0 264 -20 410l4 6q35 -6 104 -6 h539q74 0 123 6l4 -6q-4 -57 -4 -77.5t4 -53.5l-4 -8q-283 25 -557 24q-16 -55 -17 -295v-159q215 0 457 20l6 -6q-6 -29 -6 -65.5t6 -65.5l-6 -6q-203 20 -457 20v-239z"></glyph>
      <glyph glyph-name="edotaccent" unicode="ė" d="M367 1223q0 41 31.5 72.5t72.5 31.5t72.5 -31.5t31.5 -72.5t-31.5 -73t-72.5 -32t-72.5 32t-31.5 73zM256 559h377q29 0 29 29q0 106 -54.5 167.5t-118.5 61.5q-23 0 -52 -11t-67 -37t-70 -81t-44 -129zM803 213l41 -51q-59 -82 -153.5 -132t-203.5 -50q-213 0 -325 135 q-92 111 -92 313q0 213 130 342t289 129q184 0 269.5 -116.5t85.5 -270.5q0 -35 -37 -35h-557q0 -182 49 -260q74 -117 223 -117q177 0 281 113z"></glyph>
      <glyph glyph-name="Eogonek" unicode="Ę" d="M705 -459q-84 0 -137.5 46t-53.5 128q0 36 15 76t41.5 77.5t65 72t83.5 59.5h-418l-106 -6l-2 6q20 139 20 410v501q0 264 -20 410l4 6q35 -6 104 -6h539q74 0 123 6l4 -6q-4 -57 -4 -77.5t4 -53.5l-4 -8q-283 25 -557 24q-16 -55 -17 -295v-159q215 0 457 20l6 -6 q-6 -29 -6 -65.5t6 -65.5l-6 -6q-203 20 -457 20v-239q0 -240 17 -295q123 0 267 6t227 12l83 6l4 -8q-4 -33 -4 -68q0 -6 4 -63l-4 -6q-37 4 -86 6q-109 -7 -184.5 -91t-75.5 -167q0 -51 32.5 -86t86.5 -35q74 0 143 74l31 -17q-35 -68 -99.5 -102.5t-125.5 -34.5z"></glyph>
      <glyph glyph-name="eogonek" unicode="ę" d="M256 559h377q29 0 29 29q0 106 -54.5 167.5t-118.5 61.5q-23 0 -52 -11t-67 -37t-70 -81t-44 -129zM803 213l41 -51q-33 -46 -80 -83l4 -3q-94 -94 -135 -155.5t-41 -137.5q0 -35 23.5 -61.5t62.5 -26.5q51 0 108 61l7 -2l28 -35q-94 -115 -203 -114q-76 0 -118.5 42 t-42.5 113q0 113 116 228q-43 -9 -86 -8q-213 0 -325 135q-92 111 -92 313q0 213 130 342t289 129q184 0 269.5 -116.5t85.5 -270.5q0 -35 -37 -35h-557q0 -182 49 -260q74 -117 223 -117q177 0 281 113z"></glyph>
      <glyph glyph-name="Ecaron" unicode="Ě" d="M549 1427q-74 92 -207 195l33 41q123 -53 217 -125q117 82 219 125l31 -41q-102 -78 -205 -195h-88zM389 410q0 -240 17 -295q123 0 267 6t227 12l83 6l4 -8q-4 -33 -4 -68q0 -6 4 -63l-4 -6q-49 6 -123 6h-559l-106 -6l-2 6q20 139 20 410v501q0 264 -20 410l4 6 q35 -6 104 -6h539q74 0 123 6l4 -6q-4 -57 -4 -77.5t4 -53.5l-4 -8q-283 25 -557 24q-16 -55 -17 -295v-159q215 0 457 20l6 -6q-6 -29 -6 -65.5t6 -65.5l-6 -6q-203 20 -457 20v-239z"></glyph>
      <glyph glyph-name="ecaron" unicode="ě" d="M408 1026q-78 127 -207 266l41 27q145 -106 217 -184q78 80 221 184l39 -27q-137 -154 -209 -266h-102zM256 559h377q29 0 29 29q0 106 -54.5 167.5t-118.5 61.5q-23 0 -52 -11t-67 -37t-70 -81t-44 -129zM803 213l41 -51q-59 -82 -153.5 -132t-203.5 -50 q-213 0 -325 135q-92 111 -92 313q0 213 130 342t289 129q184 0 269.5 -116.5t85.5 -270.5q0 -35 -37 -35h-557q0 -182 49 -260q74 -117 223 -117q177 0 281 113z"></glyph>
      <glyph glyph-name="Gcircumflex" unicode="Ĝ" d="M788 1649q84 -100 207 -193l-32 -43q-127 59 -218 127q-102 -76 -219 -127l-28 43q88 66 202 193h88zM1118 240q-6 283 -20 389l4 6q35 -6 104 -6l107 6l2 -6q-20 -135 -21 -348v-13q0 -74 21 -98v-6q-219 -184 -545 -184q-299 0 -481.5 196.5t-182.5 472.5 q0 164 61.5 299t164 220t229.5 132.5t260 47.5q111 0 227.5 -22.5t178.5 -46.5l61 -24l4 -6q-33 -139 -41 -248l-20 -2q-70 117 -185.5 184.5t-252.5 67.5q-211 0 -343.5 -157.5t-132.5 -423.5q0 -106 28 -208t84 -191t156.5 -143t231.5 -54q219 0 301 78v88z"></glyph>
      <glyph glyph-name="gcircumflex" unicode="ĝ" d="M522 1321q68 -109 207 -264l-43 -29q-145 106 -217 184q-90 -92 -219 -184l-41 29q147 164 211 264h102zM207 -213q0 -63 54 -108.5t112.5 -61.5t101.5 -16q141 0 242.5 51t101.5 141q0 100 -80 148q-59 35 -217 34q-10 0 -78.5 -3t-103.5 -3q-55 -31 -94 -82t-39 -100z M799 592q0 -135 -88 -224t-252 -89q-98 0 -152 28q-61 -53 -61 -114q0 -59 31.5 -78t87.5 -19q2 0 59 4q78 10 170 11q209 0 289 -68q86 -74 86 -203q0 -104 -84 -181t-206 -111.5t-261 -34.5q-84 0 -159 19t-134 74.5t-59 139.5q0 63 47 135q25 20 167 100q4 2 7 4 q-79 14 -117.5 61.5t-38.5 115.5q0 82 127 170q-145 84 -145 256q0 143 107.5 227t240.5 84q69 0 125 -18q87 5 189 20.5t134 18.5l6 -7q-6 -29 -6 -53t6 -53l-6 -6q-191 20 -213 21q103 -68 103 -230zM639 582q0 240 -186 239q-88 0 -134.5 -59.5t-46.5 -163.5 q0 -119 45 -178.5t152 -59.5q92 0 131 58t39 164z"></glyph>
      <glyph glyph-name="Gbreve" unicode="Ğ" d="M1040 1651q-8 -104 -90 -168t-188 -64q-115 0 -192.5 62.5t-86.5 169.5h58q12 -57 74.5 -91t146.5 -34q80 0 145.5 33.5t75.5 91.5h57zM1118 240q-6 283 -20 389l4 6q35 -6 104 -6l107 6l2 -6q-20 -135 -21 -348v-13q0 -74 21 -98v-6q-219 -184 -545 -184 q-299 0 -481.5 196.5t-182.5 472.5q0 164 61.5 299t164 220t229.5 132.5t260 47.5q111 0 227.5 -22.5t178.5 -46.5l61 -24l4 -6q-33 -139 -41 -248l-20 -2q-70 117 -185.5 184.5t-252.5 67.5q-211 0 -343.5 -157.5t-132.5 -423.5q0 -106 28 -208t84 -191t156.5 -143 t231.5 -54q219 0 301 78v88z"></glyph>
      <glyph glyph-name="gbreve" unicode="ğ" d="M229 1319q16 -82 78 -133t143.5 -51t144 49t77.5 135l55 -25q-18 -127 -99 -201.5t-177 -74.5q-109 0 -182.5 72.5t-94.5 203.5zM207 -213q0 -63 54 -108.5t112.5 -61.5t101.5 -16q141 0 242.5 51t101.5 141q0 100 -80 148q-59 35 -217 34q-10 0 -78.5 -3t-103.5 -3 q-55 -31 -94 -82t-39 -100zM799 592q0 -135 -88 -224t-252 -89q-98 0 -152 28q-61 -53 -61 -114q0 -59 31.5 -78t87.5 -19q2 0 59 4q78 10 170 11q209 0 289 -68q86 -74 86 -203q0 -104 -84 -181t-206 -111.5t-261 -34.5q-84 0 -159 19t-134 74.5t-59 139.5q0 63 47 135 q25 20 167 100q4 2 7 4q-79 14 -117.5 61.5t-38.5 115.5q0 82 127 170q-145 84 -145 256q0 143 107.5 227t240.5 84q69 0 125 -18q87 5 189 20.5t134 18.5l6 -7q-6 -29 -6 -53t6 -53l-6 -6q-191 20 -213 21q103 -68 103 -230zM639 582q0 240 -186 239q-88 0 -134.5 -59.5 t-46.5 -163.5q0 -119 45 -178.5t152 -59.5q92 0 131 58t39 164z"></glyph>
      <glyph glyph-name="Gdotaccent" unicode="Ġ" d="M664 1599q0 43 31.5 75t74.5 32t75 -32t32 -75t-32 -74.5t-75 -31.5t-74.5 31.5t-31.5 74.5zM1118 240q-6 283 -20 389l4 6q35 -6 104 -6l107 6l2 -6q-20 -135 -21 -348v-13q0 -74 21 -98v-6q-219 -184 -545 -184q-299 0 -481.5 196.5t-182.5 472.5q0 164 61.5 299 t164 220t229.5 132.5t260 47.5q111 0 227.5 -22.5t178.5 -46.5l61 -24l4 -6q-33 -139 -41 -248l-20 -2q-70 117 -185.5 184.5t-252.5 67.5q-211 0 -343.5 -157.5t-132.5 -423.5q0 -106 28 -208t84 -191t156.5 -143t231.5 -54q219 0 301 78v88z"></glyph>
      <glyph glyph-name="gdotaccent" unicode="ġ" d="M354 1223q0 41 32 72.5t73 31.5t72.5 -31.5t31.5 -72.5t-31.5 -73t-72.5 -32t-73 32t-32 73zM207 -213q0 -63 54 -108.5t112.5 -61.5t101.5 -16q141 0 242.5 51t101.5 141q0 100 -80 148q-59 35 -217 34q-10 0 -78.5 -3t-103.5 -3q-55 -31 -94 -82t-39 -100zM799 592 q0 -135 -88 -224t-252 -89q-98 0 -152 28q-61 -53 -61 -114q0 -59 31.5 -78t87.5 -19q2 0 59 4q78 10 170 11q209 0 289 -68q86 -74 86 -203q0 -104 -84 -181t-206 -111.5t-261 -34.5q-84 0 -159 19t-134 74.5t-59 139.5q0 63 47 135q25 20 167 100q4 2 7 4 q-79 14 -117.5 61.5t-38.5 115.5q0 82 127 170q-145 84 -145 256q0 143 107.5 227t240.5 84q69 0 125 -18q87 5 189 20.5t134 18.5l6 -7q-6 -29 -6 -53t6 -53l-6 -6q-191 20 -213 21q103 -68 103 -230zM639 582q0 240 -186 239q-88 0 -134.5 -59.5t-46.5 -163.5 q0 -119 45 -178.5t152 -59.5q92 0 131 58t39 164z"></glyph>
      <glyph glyph-name="Gcommaaccent" unicode="Ģ" d="M768 -127q57 0 92 -48t35 -128q0 -86 -60.5 -137.5t-156.5 -65.5q-16 16 -16 49q72 16 112.5 47t40.5 62q0 47 -63 53q-86 14 -86 80q0 37 28.5 62.5t73.5 25.5zM1118 240q-6 283 -20 389l4 6q35 -6 104 -6l107 6l2 -6q-20 -135 -21 -348v-13q0 -74 21 -98v-6 q-219 -184 -545 -184q-299 0 -481.5 196.5t-182.5 472.5q0 164 61.5 299t164 220t229.5 132.5t260 47.5q111 0 227.5 -22.5t178.5 -46.5l61 -24l4 -6q-33 -139 -41 -248l-20 -2q-70 117 -185.5 184.5t-252.5 67.5q-211 0 -343.5 -157.5t-132.5 -423.5q0 -106 28 -208 t84 -191t156.5 -143t231.5 -54q219 0 301 78v88z"></glyph>
      <glyph glyph-name="gcommaaccent" unicode="ģ" d="M467 1047q-57 0 -92 45t-35 104q0 76 47 135q59 74 170 88q10 -10 10 -41q-80 -16 -118.5 -56t-38.5 -81q0 -12 1 -18t6 -8.5t9 -2.5t17.5 1t25.5 1q55 0 78.5 -25.5t23.5 -58.5q0 -29 -27.5 -56t-76.5 -27zM207 -213q0 -63 54 -108.5t112.5 -61.5t101.5 -16 q141 0 242.5 51t101.5 141q0 100 -80 148q-59 35 -217 34q-10 0 -78.5 -3t-103.5 -3q-55 -31 -94 -82t-39 -100zM799 592q0 -135 -88 -224t-252 -89q-98 0 -152 28q-61 -53 -61 -114q0 -59 31.5 -78t87.5 -19q2 0 59 4q78 10 170 11q209 0 289 -68q86 -74 86 -203 q0 -104 -84 -181t-206 -111.5t-261 -34.5q-84 0 -159 19t-134 74.5t-59 139.5q0 63 47 135q25 20 167 100q4 2 7 4q-79 14 -117.5 61.5t-38.5 115.5q0 82 127 170q-145 84 -145 256q0 143 107.5 227t240.5 84q69 0 125 -18q87 5 189 20.5t134 18.5l6 -7q-6 -29 -6 -53t6 -53 l-6 -6q-191 20 -213 21q103 -68 103 -230zM639 582q0 240 -186 239q-88 0 -134.5 -59.5t-46.5 -163.5q0 -119 45 -178.5t152 -59.5q92 0 131 58t39 164z"></glyph>
      <glyph glyph-name="Hcircumflex" unicode="Ĥ" d="M1098 911q0 264 -21 410l4 6q37 -6 105 -6q70 0 106 6l2 -6q-20 -135 -20 -410v-501q0 -264 20 -410l-4 -6q-37 6 -104 6q-70 0 -107 -6l-2 6q20 139 21 410v247h-709v-247q0 -264 21 -410l-4 -6q-37 6 -105 6q-70 0 -106 -6l-2 6q20 139 20 410v501q0 264 -20 410l4 6 q37 -6 104 -6q70 0 107 6l2 -6q-20 -135 -21 -410v-163h709v163zM754 1645q84 -100 207 -193l-33 -43q-127 59 -217 127q-102 -76 -219 -127l-29 43q88 66 203 193h88z"></glyph>
      <glyph glyph-name="hcircumflex" unicode="ĥ" d="M586 1704q84 -100 207 -193l-33 -43q-127 59 -217 127q-102 -76 -219 -127l-29 43q88 66 203 193h88zM348 721l4 -6q158 184 355 184q135 0 194.5 -80t59.5 -244q0 -33 -2.5 -103.5t-2.5 -102.5q0 -238 19 -369l-4 -6q-37 6 -96.5 6t-96.5 -6l-4 6q18 125 19 369v200 q0 121 -33 164t-115 43q-61 0 -143 -41t-154 -127v-239q0 -227 19 -369l-5 -6q-37 6 -96 6t-96 -6l-4 6q18 133 18 369v616q0 295 -18 397l4 7q92 6 178 41q18 0 19 -21q-18 -236 -19 -383v-305z"></glyph>
      <glyph glyph-name="Hbar" unicode="Ħ" d="M393 1118h701q-5 118 -17 203l4 6q37 -6 105 -6q70 0 106 6l2 -6q-12 -79 -17 -203h66v-69h-68q-1 -63 -1 -138v-501q0 -264 20 -410l-4 -6q-37 6 -104 6q-70 0 -107 -6l-2 6q20 139 21 410v247h-709v-247q0 -264 21 -410l-4 -6q-37 6 -105 6q-70 0 -106 -6l-2 6 q20 139 20 410v501q0 75 -1 138h-128v69h125q-2 57 -6 107.5t-10 95.5l4 6q37 -6 104 -6q70 0 107 6l2 -6q-12 -79 -17 -203zM391 1049q-1 -63 -2 -138v-163h709v163q0 75 -2 138h-705z"></glyph>
      <glyph glyph-name="hbar" unicode="ħ" d="M348 721l4 -6q158 184 355 184q135 0 194.5 -80t59.5 -244q0 -33 -2.5 -103.5t-2.5 -102.5q0 -238 19 -369l-4 -6q-37 6 -96.5 6t-96.5 -6l-4 6q18 125 19 369v200q0 121 -33 164t-115 43q-61 0 -143 -41t-154 -127v-239q0 -227 19 -369l-5 -6q-37 6 -96 6t-96 -6l-4 6 q18 133 18 369v616v100h-131v80h129q-4 145 -16 217l4 7q92 6 178 41q18 0 19 -21q-13 -161 -16 -244h347v-80h-349q0 -38 -1 -59v-305z"></glyph>
      <glyph glyph-name="Itilde" unicode="Ĩ" d="M436 1518q35 0 58.5 22.5t44.5 83.5l49 -12q-37 -184 -178 -185q-51 0 -131 54q-74 45 -111 45q-39 0 -61.5 -23.5t-38.5 -75.5l-50 11q23 92 61 137t103.5 45t147.5 -57q59 -45 106 -45zM213 911q0 264 -20 410l4 6q37 -6 104.5 -6t104.5 6l4 -6q-20 -135 -21 -410v-501 q0 -264 21 -410l-4 -6q-37 6 -105 6t-104 -6l-4 6q20 139 20 410v501z"></glyph>
      <glyph glyph-name="itilde" unicode="ĩ" d="M400 1167q32 0 52.5 22.5t39.5 84.5l44 -12q-33 -184 -160 -185q-28 0 -56 14t-62 39q-66 45 -100 46q-14 0 -26 -4t-21 -11.5t-17 -19.5t-14.5 -27.5t-11.5 -36.5l-44 10q20 93 54.5 138t92.5 45q59 0 133 -58q54 -45 96 -45zM184 481q0 272 -18 398l4 6q88 -6 178 2 q12 0 15.5 -3t3.5 -18q-18 -172 -19 -352v-145q0 -223 19 -369l-5 -6q-37 6 -96 6t-96 -6l-4 6q18 137 18 369v112z"></glyph>
      <glyph glyph-name="Imacron" unicode="Ī" d="M543 1501h-500q-27 0 -27 31q0 18 14.5 38.5t30.5 20.5h502q29 0 29 -28q0 -20 -15.5 -41t-33.5 -21zM213 911q0 264 -20 410l4 6q37 -6 104.5 -6t104.5 6l4 -6q-20 -135 -21 -410v-501q0 -264 21 -410l-4 -6q-37 6 -105 6t-104 -6l-4 6q20 139 20 410v501z"></glyph>
      <glyph glyph-name="imacron" unicode="ī" d="M491 1102h-449q-6 0 -11 2.5t-7.5 7t-4 10t-1.5 11.5q0 12 5.5 26t15 23.5t19.5 9.5h452q26 0 26 -29q0 -20 -14 -40.5t-31 -20.5zM184 481q0 272 -18 398l4 6q88 -6 178 2q12 0 15.5 -3t3.5 -18q-18 -172 -19 -352v-145q0 -223 19 -369l-5 -6q-37 6 -96 6t-96 -6l-4 6 q18 137 18 369v112z"></glyph>
      <glyph glyph-name="Ibreve" unicode="Ĭ" d="M584 1649q-8 -104 -90 -168t-189 -64q-115 0 -192.5 62.5t-85.5 169.5h57q12 -57 74.5 -91t146.5 -34q80 0 145.5 33.5t75.5 91.5h58zM213 911q0 264 -20 410l4 6q37 -6 104.5 -6t104.5 6l4 -6q-20 -135 -21 -410v-501q0 -264 21 -410l-4 -6q-37 6 -105 6t-104 -6l-4 6 q20 139 20 410v501z"></glyph>
      <glyph glyph-name="ibreve" unicode="ĭ" d="M80 1331q10 -54 38 -95.5t70 -65t91 -23.5q74 0 130 49t69 135l50 -24q-16 -126 -89 -201.5t-160 -75.5q-97 0 -163 73.5t-85 203.5zM184 481q0 272 -18 398l4 6q88 -6 178 2q12 0 15.5 -3t3.5 -18q-18 -172 -19 -352v-145q0 -223 19 -369l-5 -6q-37 6 -96 6t-96 -6l-4 6 q18 137 18 369v112z"></glyph>
      <glyph glyph-name="Iogonek" unicode="Į" d="M188 -461q-84 0 -137 46t-53 128q0 72 55 151t143 130l-3 6q20 139 20 410v501q0 264 -20 410l4 6q37 -6 104.5 -6t104.5 6l4 -6q-20 -135 -21 -410v-501q0 -264 21 -410l-4 -6q-14 2 -30 3q-72 -6 -132.5 -49.5t-91.5 -100t-31 -107.5t32.5 -86t86.5 -35q76 0 143 74 l31 -17q-35 -68 -100 -102.5t-126 -34.5z"></glyph>
      <glyph glyph-name="iogonek" unicode="į" d="M143 -461q-84 0 -137 46t-53 128q0 50 26 104t75 103.5t112 82.5q18 138 18 366v112q0 272 -18 398l4 6q88 -6 178 2q12 0 15.5 -3t3.5 -18q-18 -172 -19 -352v-145q0 -223 19 -369l-5 -6q-13 2 -30 3q-108 -8 -182 -91t-74 -166q0 -51 32.5 -86t86.5 -35q74 0 141 74 l33 -17q-35 -68 -100 -102.5t-126 -34.5zM164 1223q0 41 31.5 72.5t72.5 31.5t73 -31.5t32 -72.5t-32 -73t-73 -32t-72.5 32t-31.5 73z"></glyph>
      <glyph glyph-name="Idotaccent" unicode="İ" d="M199 1599q0 43 31.5 75t74.5 32t75 -32t32 -75t-32 -74.5t-75 -31.5t-74.5 31.5t-31.5 74.5zM213 911q0 264 -20 410l4 6q37 -6 104.5 -6t104.5 6l4 -6q-20 -135 -21 -410v-501q0 -264 21 -410l-4 -6q-37 6 -105 6t-104 -6l-4 6q20 139 20 410v501z"></glyph>
      <glyph glyph-name="dotlessi" unicode="ı" d="M184 481q0 272 -18 398l4 6q88 -6 178 2q12 0 15.5 -3t3.5 -18q-18 -172 -19 -352v-145q0 -223 19 -369l-5 -6q-37 6 -96 6t-96 -6l-4 6q18 137 18 369v112z"></glyph>
      <glyph glyph-name="IJ" unicode="Ĳ" d="M846 195v716q0 264 -21 410l4 6q37 -6 105 -6q70 0 106 6l2 -6q-20 -135 -20 -410v-671q0 -174 -23.5 -252t-105.5 -185q-121 -156 -324 -155q-63 0 -92 18l-2 6q25 43 57 168l23 2q39 -72 119 -71q57 0 94 37.5t52.5 109.5t20.5 131.5t5 145.5zM213 911q0 264 -20 410 l4 6q37 -6 104.5 -6t104.5 6l4 -6q-20 -135 -21 -410v-501q0 -264 21 -410l-4 -6q-37 6 -105 6t-104 -6l-4 6q20 139 20 410v501z"></glyph>
      <glyph glyph-name="ij" unicode="ĳ" d="M715 1223q0 41 31.5 72.5t72.5 31.5t73 -31.5t32 -72.5t-32 -73t-73 -32t-72.5 32t-31.5 73zM903 514v-268q0 -223 -20.5 -334t-69.5 -188q-106 -166 -276 -166q-59 0 -88 18l-3 6q8 31 9 182l32 9q51 -92 123 -92q78 0 103.5 133t25.5 383v284q0 272 -18 398l4 6 q88 -6 178 2q12 0 15.5 -3t3.5 -18q-19 -172 -19 -352zM164 1223q0 41 31.5 72.5t72.5 31.5t73 -31.5t32 -72.5t-32 -73t-73 -32t-72.5 32t-31.5 73zM184 481q0 272 -18 398l4 6q88 -6 178 2q12 0 15.5 -3t3.5 -18q-18 -172 -19 -352v-145q0 -223 19 -369l-5 -6q-37 6 -96 6 t-96 -6l-4 6q18 137 18 369v112z"></glyph>
      <glyph glyph-name="Jcircumflex" unicode="Ĵ" d="M408 1649q84 -100 206 -193l-32 -43q-127 59 -217 127q-102 -76 -220 -127l-28 43q88 66 202 193h89zM287 195v716q0 264 -21 410l4 6q37 -6 105 -6q70 0 106 6l2 -6q-20 -135 -20 -410v-671q0 -174 -23.5 -252t-105.5 -185q-121 -156 -324 -155q-63 0 -92 18l-2 6 q25 43 57 168l23 2q39 -72 119 -71q57 0 94 37.5t52 109.5t20.5 131.5t5.5 145.5z"></glyph>
      <glyph glyph-name="jcircumflex" unicode="ĵ" d="M360 1319q68 -109 207 -264l-43 -29q-145 106 -217 184q-90 -92 -219 -184l-41 29q147 164 211 264h102zM373 514v-268q0 -223 -20.5 -334t-69.5 -188q-106 -166 -277 -166q-59 0 -88 18l-2 6q8 31 8 182l33 9q51 -92 123 -92q78 0 103.5 133t25.5 383v284q0 272 -19 398 l5 6q88 -6 178 2q12 0 15 -3t3 -18q-18 -172 -18 -352z"></glyph>
      <glyph glyph-name="Kcommaaccent" unicode="Ķ" d="M727 -80q57 0 92 -48t35 -128q0 -86 -60.5 -137t-156.5 -66q-16 16 -16 49q72 16 112.5 47t40.5 62q0 47 -63 53q-86 14 -86 80q0 37 28.5 62.5t73.5 25.5zM213 911q0 264 -20 410l4 6q37 -6 104.5 -6t104.5 6l4 -6q-20 -135 -21 -410v-206q27 3 45 18q240 209 584 604 q27 -6 100 -6q72 0 105 6q-422 -371 -623 -602v-4l643 -727q-39 6 -127 6q-92 0 -127 -6q-449 553 -561 665q-5 4 -12.5 7t-14 4.5t-12.5 2.5v-263q0 -264 21 -410l-4 -6q-37 6 -105 6t-104 -6l-4 6q20 139 20 410v501z"></glyph>
      <glyph glyph-name="kcommaaccent" unicode="ķ" d="M545 -74q57 0 92 -48t35 -128q0 -86 -60.5 -137t-156.5 -66q-16 16 -17 50q72 16 113 46.5t41 61.5q0 47 -64 53q-86 14 -86 80q0 37 29 62.5t74 25.5zM184 410v577q0 293 -18 395l4 7q92 6 178 41q18 0 19 -21q-18 -248 -19 -385v-532q23 2 47.5 9.5t42.5 20.5 q63 49 161.5 155.5t162.5 201.5q168 0 207 6l4 -6q-201 -170 -414 -392q88 -104 163 -185t161 -166t133 -136l-4 -6q-31 6 -123 6q-82 0 -135 -6q-90 129 -121 173t-84 108.5t-117 132.5q-23 20 -84 22v-20q0 -274 19 -410l-5 -6q-37 6 -96 6t-96 -6l-4 6q18 131 18 410z "></glyph>
      <glyph glyph-name="kgreenlandic" unicode="ĸ" d="M336 485q45 0 84 31q63 47 164.5 157.5t167.5 205.5q168 0 206 6l5 -6q-102 -86 -404 -400q86 -104 162 -184t158 -161t133 -134l-4 -6q-31 6 -123 6q-82 0 -135 -6q-51 72 -105.5 137.5t-78 92t-97.5 101t-88 91.5q-20 18 -45 18v51zM168 481q0 272 -18 398l4 6 q88 -6 178 2q12 0 15 -3t3 -18q-18 -172 -18 -352v-145q0 -223 18 -369l-4 -6q-37 6 -96.5 6t-95.5 -6l-4 6q18 137 18 369v112z"></glyph>
      <glyph glyph-name="Lacute" unicode="Ĺ" d="M391 911v-501q0 -229 17 -285q123 0 267 11t227 23l83 11l4 -8q-4 -33 -4 -72q0 -33 4 -90l-4 -6q-49 6 -123 6h-559l-106 -6l-2 6q20 139 20 410v501q0 264 -20 410l4 6q37 -6 104 -6q70 0 107 6l2 -6q-21 -136 -21 -410zM393 1677q88 -41 127 -106l-295 -119 q-57 -25 -86 -25q-31 0 -30 31q0 23 30 43z"></glyph>
      <glyph glyph-name="lacute" unicode="ĺ" d="M416 1735q88 -41 127 -107l-295 -119q-57 -25 -86 -24q-31 0 -31 31q0 23 31 43zM184 410v577q0 293 -18 395l4 7q92 6 178 41q18 0 19 -21q-18 -248 -19 -385v-614q0 -274 19 -410l-5 -6q-37 6 -96 6t-96 -6l-4 6q18 131 18 410z"></glyph>
      <glyph glyph-name="Lcommaaccent" unicode="Ļ" d="M547 -88q57 0 92 -48t35 -128q0 -86 -60.5 -137.5t-156.5 -65.5q-16 16 -17 49q72 16 113 47t41 62q0 47 -64 53q-86 14 -86 80q0 37 29 62.5t74 25.5zM391 911v-501q0 -229 17 -285q123 0 267 11t227 23l83 11l4 -8q-4 -33 -4 -72q0 -33 4 -90l-4 -6q-49 6 -123 6h-559 l-106 -6l-2 6q20 139 20 410v501q0 264 -20 410l4 6q37 -6 104 -6q70 0 107 6l2 -6q-21 -136 -21 -410z"></glyph>
      <glyph glyph-name="lcommaaccent" unicode="ļ" d="M184 410v577q0 293 -18 395l4 7q92 6 178 41q18 0 19 -21q-18 -248 -19 -385v-614q0 -274 19 -410l-5 -6q-37 6 -96 6t-96 -6l-4 6q18 131 18 410zM266 -102q57 0 92 -48.5t35 -128.5q0 -86 -60.5 -137t-156.5 -65q-16 16 -16 49q72 16 112.5 47t40.5 61q0 47 -63 54 q-86 14 -86 80q0 37 28.5 62.5t73.5 25.5z"></glyph>
      <glyph glyph-name="Lcaron" unicode="Ľ" d="M819 1430q55 0 89 -45.5t34 -104.5q0 -66 -55.5 -136.5t-153.5 -80.5l-10 35q59 12 94 56t35 85q0 43 -29 43q-94 0 -94 78q0 27 23.5 48.5t66.5 21.5zM391 911v-501q0 -229 17 -285q123 0 267 11t227 23l83 11l4 -8q-4 -33 -4 -72q0 -33 4 -90l-4 -6q-49 6 -123 6h-559 l-106 -6l-2 6q20 139 20 410v501q0 264 -20 410l4 6q37 -6 104 -6q70 0 107 6l2 -6q-21 -136 -21 -410z"></glyph>
      <glyph glyph-name="lcaron" unicode="ľ" d="M543 1430q55 0 89 -45.5t34 -104.5q0 -66 -55.5 -136.5t-153.5 -80.5l-11 35q59 12 94 56t35 85q0 43 -28 43q-94 0 -94 78q0 27 23.5 48.5t66.5 21.5zM184 410v577q0 293 -18 395l4 7q92 6 178 41q18 0 19 -21q-18 -248 -19 -385v-614q0 -274 19 -410l-5 -6q-37 6 -96 6 t-96 -6l-4 6q18 131 18 410z"></glyph>
      <glyph glyph-name="Ldot" unicode="Ŀ" d="M698 578q-49 0 -79.5 32.5t-30.5 77.5q0 43 32.5 77t77.5 34q43 0 77 -33t34 -78t-32 -77.5t-79 -32.5zM391 911v-501q0 -229 17 -285q123 0 267 11t227 23l83 11l4 -8q-4 -33 -4 -72q0 -33 4 -90l-4 -6q-49 6 -123 6h-559l-106 -6l-2 6q20 139 20 410v501q0 264 -20 410 l4 6q37 -6 104 -6q70 0 107 6l2 -6q-21 -136 -21 -410z"></glyph>
      <glyph glyph-name="ldot" unicode="ŀ" d="M436 737q0 39 29 70t70 31q37 0 66.5 -30t29.5 -71q0 -39 -28 -67.5t-68 -28.5q-45 0 -72 28.5t-27 67.5zM184 410v577q0 293 -18 395l4 7q92 6 178 41q18 0 19 -21q-18 -248 -19 -385v-614q0 -274 19 -410l-5 -6q-37 6 -96 6t-96 -6l-4 6q18 131 18 410z"></glyph>
      <glyph glyph-name="Lslash" unicode="Ł" d="M635 920l37 -62l-281 -161v-287q0 -229 17 -285q123 0 267 11t227 23l83 11l4 -8q-4 -33 -4 -72q0 -33 4 -90l-4 -6q-49 6 -123 6h-559l-106 -6l-2 6q20 139 20 410v186l-168 -96l-37 63l205 117v231q0 264 -20 410l4 6q37 -6 104 -6q70 0 107 6l2 -6q-20 -135 -21 -410 v-131z"></glyph>
      <glyph glyph-name="lslash" unicode="ł" d="M498 897l34 -61l-184 -108v-318q0 -274 19 -410l-5 -6q-37 6 -96 6t-96 -6l-4 6q18 131 18 410v223l-137 -80l-35 59l172 101v274q0 293 -18 395l4 7q92 6 178 41q18 0 19 -21q-18 -248 -19 -385v-215z"></glyph>
      <glyph glyph-name="Nacute" unicode="Ń" d="M874 1679q88 -41 127 -106l-294 -119q-57 -25 -86 -24q-31 0 -31 30q0 23 31 43zM221 1321l4 6q16 -6 86 -6l29 4l702 -909q82 -106 97 -113t20 19q3 15 4 43v546q0 264 -20 410l4 6q37 -6 71.5 -6t71.5 6l4 -6q-12 -160 -19 -335t-9 -290.5t-6.5 -328.5t-6.5 -324 q-4 -63 -39 -63q-51 0 -88 49l-714 903q-31 41 -45.5 56.5t-23.5 10t-10 -26t-1 -73.5v-489q0 -264 20 -410l-4 -6q-37 6 -71.5 6t-71.5 -6l-4 6q25 238 29.5 637t-9.5 684z"></glyph>
      <glyph glyph-name="nacute" unicode="ń" d="M635 1374q12 4 29 4q63 0 112 -47l6 -22l-235 -224q-39 -39 -62 -38q-10 0 -19 8t-9 18q0 20 23 57zM942 369q0 -233 19 -369l-5 -6q-37 6 -96 6t-96 -6l-4 6q18 137 18 369v200q0 121 -32.5 164t-114.5 43q-63 0 -144 -41t-153 -127v-239q0 -238 18 -369l-4 -6 q-37 6 -96 6t-96 -6l-4 6q18 125 18 369v112q0 283 -18 398l4 6q90 -8 166 6q12 0 12 -21v-149l4 -6q158 184 354 184q135 0 194.5 -80t59.5 -244q0 -33 -2 -103t-2 -103z"></glyph>
      <glyph glyph-name="Ncommaaccent" unicode="Ņ" d="M733 -78q57 0 92 -48t35 -128q0 -86 -60.5 -137t-156.5 -66q-16 16 -16 49q72 16 112.5 47t40.5 62q0 47 -63 53q-86 14 -86 80q0 37 28.5 62.5t73.5 25.5zM221 1321l4 6q16 -6 86 -6l29 4l702 -909q82 -106 97 -113t20 19q3 15 4 43v546q0 264 -20 410l4 6 q37 -6 71.5 -6t71.5 6l4 -6q-12 -160 -19 -335t-9 -290.5t-6.5 -328.5t-6.5 -324q-4 -63 -39 -63q-51 0 -88 49l-714 903q-31 41 -45.5 56.5t-23.5 10t-10 -26t-1 -73.5v-489q0 -264 20 -410l-4 -6q-37 6 -71.5 6t-71.5 -6l-4 6q25 238 29.5 637t-9.5 684z"></glyph>
      <glyph glyph-name="ncommaaccent" unicode="ņ" d="M526 -84q57 0 92 -48t35 -128q0 -86 -60.5 -137.5t-156.5 -65.5q-16 16 -16 49q72 16 112.5 47t40.5 62q0 47 -63 53q-86 14 -86 80q0 37 28.5 62.5t73.5 25.5zM942 369q0 -233 19 -369l-5 -6q-37 6 -96 6t-96 -6l-4 6q18 137 18 369v200q0 121 -32.5 164t-114.5 43 q-63 0 -144 -41t-153 -127v-239q0 -238 18 -369l-4 -6q-37 6 -96 6t-96 -6l-4 6q18 125 18 369v112q0 283 -18 398l4 6q90 -8 166 6q12 0 12 -21v-149l4 -6q158 184 354 184q135 0 194.5 -80t59.5 -244q0 -33 -2 -103t-2 -103z"></glyph>
      <glyph glyph-name="Ncaron" unicode="Ň" d="M678 1427q-74 92 -207 195l33 41q123 -53 217 -125q117 82 219 125l31 -41q-102 -78 -205 -195h-88zM221 1321l4 6q16 -6 86 -6l29 4l702 -909q82 -106 97 -113t20 19q3 15 4 43v546q0 264 -20 410l4 6q37 -6 71.5 -6t71.5 6l4 -6q-12 -160 -19 -335t-9 -290.5 t-6.5 -328.5t-6.5 -324q-4 -63 -39 -63q-51 0 -88 49l-714 903q-31 41 -45.5 56.5t-23.5 10t-10 -26t-1 -73.5v-489q0 -264 20 -410l-4 -6q-37 6 -71.5 6t-71.5 -6l-4 6q25 238 29.5 637t-9.5 684z"></glyph>
      <glyph glyph-name="ncaron" unicode="ň" d="M496 1030q-78 127 -207 266l41 27q145 -106 217 -184q78 80 221 184l39 -27q-137 -154 -209 -266h-102zM942 369q0 -233 19 -369l-5 -6q-37 6 -96 6t-96 -6l-4 6q18 137 18 369v200q0 121 -32.5 164t-114.5 43q-63 0 -144 -41t-153 -127v-239q0 -238 18 -369l-4 -6 q-37 6 -96 6t-96 -6l-4 6q18 125 18 369v112q0 283 -18 398l4 6q90 -8 166 6q12 0 12 -21v-149l4 -6q158 184 354 184q135 0 194.5 -80t59.5 -244q0 -33 -2 -103t-2 -103z"></glyph>
      <glyph glyph-name="napostrophe" unicode="ŉ" d="M147 1430q55 0 89 -45.5t34 -104.5q0 -66 -55 -136.5t-154 -80.5l-10 35q59 12 94 56t35 85q0 43 -28 43q-94 0 -95 78q0 27 23.5 48.5t66.5 21.5zM969 369q0 -233 18 -369l-4 -6q-37 6 -96.5 6t-95.5 -6l-5 6q18 137 19 369v200q0 121 -33 164t-115 43q-63 0 -144 -41 t-153 -127v-239q0 -238 19 -369l-4 -6q-37 6 -96.5 6t-96.5 -6l-4 6q18 125 19 369v112q0 283 -19 398l4 6q90 -8 166 6q12 0 12 -21v-149l5 -6q158 184 354 184q135 0 194.5 -80t59.5 -244q0 -33 -2 -103t-2 -103z"></glyph>
      <glyph glyph-name="Eng" unicode="Ŋ" d="M207 911q0 264 -21 410l4 6q35 -6 105 -6l29 4l702 -909q16 -20 40 -54q44 -59 54 -60.5t12 29.5l1 34v546q0 264 -21 410l4 6q23 -6 72 -6l72 6l2 -6q-20 -135 -21 -410v-671q0 -174 -23.5 -252t-105.5 -187q-119 -156 -324 -155q-63 0 -92 18l-2 6q25 43 58 168l22 2 q39 -72 119 -71q158 0 187 298l-685 865q-31 41 -45 56.5t-23.5 10t-10.5 -26t-1 -73.5v-489q0 -264 21 -410l-4 -6q-23 6 -72 6l-72 -6l-2 6q20 135 21 410v501z"></glyph>
      <glyph glyph-name="eng" unicode="ŋ" d="M334 369q0 -238 18 -369l-4 -6q-37 6 -96 6t-96 -6l-4 6q18 125 18 369v112q0 283 -18 398l4 6q90 -8 166 6q12 0 12 -21v-149l4 -6q150 184 373 184q129 0 180 -86t51 -238v-579q0 -111 -16.5 -166t-67.5 -125q-104 -141 -272 -141q-57 0 -86 16l-2 6q12 20 20 76.5 t12 75.5l21 2q14 -25 21.5 -35t24.5 -20.5t44 -10.5q143 0 143 197q0 8 -1 44t-3 109.5t-2 172.5v372q0 109 -30.5 158t-104.5 49q-168 0 -309 -166v-241z"></glyph>
      <glyph glyph-name="Omacron" unicode="Ō" d="M969 1501h-500q-27 0 -27 31q0 18 14.5 38.5t30.5 20.5h502q29 0 29 -28q0 -20 -15.5 -41t-33.5 -21zM727 1257q-168 0 -289 -144t-121 -443q0 -281 141.5 -440.5t338.5 -159.5q180 0 291.5 148.5t111.5 416.5q0 311 -125 466.5t-348 155.5zM1411 674q0 -307 -181 -500.5 t-474 -193.5q-272 0 -461 180t-189 475q0 301 186.5 507t461.5 206q281 0 469 -187.5t188 -486.5z"></glyph>
      <glyph glyph-name="omacron" unicode="ō" d="M758 1102h-500q-27 0 -27 31q0 18 14.5 38.5t30.5 20.5h502q29 0 29 -29q0 -20 -15.5 -40.5t-33.5 -20.5zM78 420q0 217 120.5 348t321.5 131q205 0 315.5 -124t110.5 -337q0 -205 -116.5 -331.5t-317.5 -126.5q-199 0 -316.5 125t-117.5 315zM506 817q-90 0 -148.5 -55 t-79 -132t-20.5 -175q0 -92 20.5 -174t86 -151t165.5 -69q102 0 169 96.5t67 243.5q0 207 -54 311.5t-206 104.5z"></glyph>
      <glyph glyph-name="Obreve" unicode="Ŏ" d="M1014 1649q-8 -104 -90 -168t-189 -64q-115 0 -192.5 62.5t-85.5 169.5h57q12 -57 74.5 -91t146.5 -34q80 0 145.5 33.5t75.5 91.5h58zM727 1257q-168 0 -289 -144t-121 -443q0 -281 141.5 -440.5t338.5 -159.5q180 0 291.5 148.5t111.5 416.5q0 311 -125 466.5 t-348 155.5zM1411 674q0 -307 -181 -500.5t-474 -193.5q-272 0 -461 180t-189 475q0 301 186.5 507t461.5 206q281 0 469 -187.5t188 -486.5z"></glyph>
      <glyph glyph-name="obreve" unicode="ŏ" d="M289 1321q16 -82 77.5 -133t143.5 -51t144.5 49t76.5 135l55 -25q-18 -127 -99 -201.5t-177 -74.5q-109 0 -182.5 72.5t-94.5 203.5zM78 420q0 217 120.5 348t321.5 131q205 0 315.5 -124t110.5 -337q0 -205 -116.5 -331.5t-317.5 -126.5q-199 0 -316.5 125t-117.5 315z M506 817q-90 0 -148.5 -55t-79 -132t-20.5 -175q0 -92 20.5 -174t86 -151t165.5 -69q102 0 169 96.5t67 243.5q0 207 -54 311.5t-206 104.5z"></glyph>
      <glyph glyph-name="Ohungarumlaut" unicode="Ő" d="M1040 1622q0 -27 -14 -41l-203 -172q-6 -6 -16 -6q-8 0 -17.5 7t-9.5 20q0 5 2 10t6 12l121 223q16 25 47 25q41 0 62.5 -24.5t21.5 -53.5zM772 1632q0 -27 -14 -39l-180 -165q-17 -15 -29 -15q-27 0 -27 25q0 12 5 22l112 226q16 25 55 24q27 0 52.5 -22.5t25.5 -55.5z M727 1257q-168 0 -289 -144t-121 -443q0 -281 141.5 -440.5t338.5 -159.5q180 0 291.5 148.5t111.5 416.5q0 311 -125 466.5t-348 155.5zM1411 674q0 -307 -181 -500.5t-474 -193.5q-272 0 -461 180t-189 475q0 301 186.5 507t461.5 206q281 0 469 -187.5t188 -486.5z"></glyph>
      <glyph glyph-name="ohungarumlaut" unicode="ő" d="M834 1251q0 -25 -15 -39l-233 -225q-4 -4 -12.5 -4t-18.5 8t-10 19q0 6 2 8l160 285q14 25 49 24q31 0 54.5 -23.5t23.5 -52.5zM563 1264q0 -20 -10 -33l-209 -248q-6 -6 -16 -6q-29 0 -29 27q0 4 2 6l131 299q12 29 53 28q33 0 55.5 -21t22.5 -52zM78 420 q0 217 120.5 348t321.5 131q205 0 315.5 -124t110.5 -337q0 -205 -116.5 -331.5t-317.5 -126.5q-199 0 -316.5 125t-117.5 315zM506 817q-90 0 -148.5 -55t-79 -132t-20.5 -175q0 -92 20.5 -174t86 -151t165.5 -69q102 0 169 96.5t67 243.5q0 207 -54 311.5t-206 104.5z"></glyph>
      <glyph glyph-name="OE" unicode="Œ" d="M713 76h26q59 0 82 18.5t23 63.5v1007q0 47 -21.5 61.5t-83.5 14.5h-71q-166 0 -268.5 -133t-102.5 -438q0 -297 121 -445.5t295 -148.5zM932 0q-215 -2 -215 -4q-285 2 -458 187.5t-173 467.5q0 287 165 479.5t443 192.5q145 -2 238 -2h538q74 0 123 6l4 -6 q-4 -57 -4 -64q0 -20 4 -53l-4 -8q-283 25 -557 25q-16 -55 -16 -310v-168q215 0 457 21l6 -6q-6 -29 -6 -57.5t6 -57.5l-6 -6q-203 20 -457 20v-247q0 -244 16 -299q123 0 267.5 6t227.5 12l83 6l4 -8q-4 -33 -4 -68q0 -2 4 -59l-4 -6q-49 6 -123 6h-559z"></glyph>
      <glyph glyph-name="oe" unicode="œ" d="M942 588h371q29 0 28 28q0 104 -50 152.5t-115 48.5q-25 0 -52.5 -7t-67.5 -26.5t-71 -70.5t-43 -125zM1497 215l41 -53q-133 -182 -350 -182q-121 0 -212.5 45.5t-146.5 126.5q-60 -88 -134 -130t-210 -42q-190 0 -302.5 124.5t-112.5 317.5q0 227 128 352t310 125 q74 0 131 -14.5t96 -42.5t63.5 -56.5t49.5 -70.5q61 87 149.5 135.5t178.5 48.5q184 0 266 -107.5t82 -259.5q0 -35 -37 -34h-551q0 -205 92 -301.5t201 -96.5q162 0 268 115zM254 485q0 -186 64.5 -305t195.5 -119q94 0 166 77t72 270q0 211 -79 311t-167 100 q-121 0 -186.5 -105.5t-65.5 -228.5z"></glyph>
      <glyph glyph-name="Racute" unicode="Ŕ" d="M647 1679q88 -41 127 -106l-295 -119q-57 -25 -86 -24q-31 0 -31 30q0 23 31 43zM389 586v-176q0 -264 21 -410l-4 -6q-37 6 -105 6t-104 -6l-4 6q20 139 20 410v501q0 264 -20 410l4 6q37 -6 104 -6q33 0 142.5 7t134.5 7q279 0 383 -98q109 -102 108 -256 q0 -227 -205 -330q-45 -23 -124 -39q48 -64 214 -305.5t224 -306.5l-4 -6q-41 6 -123 6q-84 0 -123 -6q-37 111 -195 366q-10 16 -36.5 60t-39.5 64.5t-35.5 52t-42.5 55.5q-86 -6 -190 -6zM580 1247q-135 0 -163 -14t-28 -76v-489h119q168 0 266 68.5t98 242.5 q0 78 -27.5 134t-73.5 84t-92 39t-99 11z"></glyph>
      <glyph glyph-name="racute" unicode="ŕ" d="M494 1374q12 4 28 4q63 0 113 -47l6 -22l-235 -224q-39 -39 -62 -38q-10 0 -19.5 8t-9.5 18q0 20 24 57zM342 684l6 -4q72 123 126 171t134 48q25 0 74 -14l8 -8l-41 -152l-16 -4q-31 29 -107 29q-68 0 -114 -72q-70 -106 -70 -203v-106q0 -229 18 -369l-4 -6 q-37 6 -96 6t-96 -6l-4 6q18 127 18 369v112q0 283 -18 398l4 6q90 -8 166 6q12 0 12 -21v-186z"></glyph>
      <glyph glyph-name="Rcommaaccent" unicode="Ŗ" d="M594 -88q57 0 92 -48t35 -128q0 -86 -60.5 -137.5t-156.5 -65.5q-16 16 -17 49q72 16 113 47t41 62q0 47 -63 53q-86 14 -86 80q0 37 28.5 62.5t73.5 25.5zM389 586v-176q0 -264 21 -410l-4 -6q-37 6 -105 6t-104 -6l-4 6q20 139 20 410v501q0 264 -20 410l4 6 q37 -6 104 -6q33 0 142.5 7t134.5 7q279 0 383 -98q109 -102 108 -256q0 -227 -205 -330q-45 -23 -124 -39q48 -64 214 -305.5t224 -306.5l-4 -6q-41 6 -123 6q-84 0 -123 -6q-37 111 -195 366q-10 16 -36.5 60t-39.5 64.5t-35.5 52t-42.5 55.5q-86 -6 -190 -6zM580 1247 q-135 0 -163 -14t-28 -76v-489h119q168 0 266 68.5t98 242.5q0 78 -27.5 134t-73.5 84t-92 39t-99 11z"></glyph>
      <glyph glyph-name="rcommaaccent" unicode="ŗ" d="M260 -84q57 0 92 -48t35 -128q0 -86 -60.5 -137.5t-156.5 -65.5q-16 16 -16 49q72 16 112.5 47t40.5 62q0 47 -63 53q-86 14 -86 80q0 37 28.5 62.5t73.5 25.5zM342 684l6 -4q72 123 126 171t134 48q25 0 74 -14l8 -8l-41 -152l-16 -4q-31 29 -107 29q-68 0 -114 -72 q-70 -106 -70 -203v-106q0 -229 18 -369l-4 -6q-37 6 -96 6t-96 -6l-4 6q18 127 18 369v112q0 283 -18 398l4 6q90 -8 166 6q12 0 12 -21v-186z"></glyph>
      <glyph glyph-name="Rcaron" unicode="Ř" d="M500 1427q-74 92 -207 195l33 41q123 -53 217 -125q117 82 219 125l31 -41q-102 -78 -205 -195h-88zM389 586v-176q0 -264 21 -410l-4 -6q-37 6 -105 6t-104 -6l-4 6q20 139 20 410v501q0 264 -20 410l4 6q37 -6 104 -6q33 0 142.5 7t134.5 7q279 0 383 -98 q109 -102 108 -256q0 -227 -205 -330q-45 -23 -124 -39q48 -64 214 -305.5t224 -306.5l-4 -6q-41 6 -123 6q-84 0 -123 -6q-37 111 -195 366q-10 16 -36.5 60t-39.5 64.5t-35.5 52t-42.5 55.5q-86 -6 -190 -6zM580 1247q-135 0 -163 -14t-28 -76v-489h119q168 0 266 68.5 t98 242.5q0 78 -27.5 134t-73.5 84t-92 39t-99 11z"></glyph>
      <glyph glyph-name="rcaron" unicode="ř" d="M358 1030q-78 127 -206 266l41 27q145 -106 217 -184q78 80 221 184l39 -27q-137 -154 -209 -266h-103zM342 684l6 -4q72 123 126 171t134 48q25 0 74 -14l8 -8l-41 -152l-16 -4q-31 29 -107 29q-68 0 -114 -72q-70 -106 -70 -203v-106q0 -229 18 -369l-4 -6q-37 6 -96 6 t-96 -6l-4 6q18 127 18 369v112q0 283 -18 398l4 6q90 -8 166 6q12 0 12 -21v-186z"></glyph>
      <glyph glyph-name="Sacute" unicode="Ś" d="M496 70q96 0 167.5 64.5t71.5 174.5q0 119 -61.5 183.5t-177.5 113.5q-76 31 -129.5 61.5t-108.5 77t-85 108.5t-30 140q0 106 64.5 192.5t161.5 127.5q84 35 176 35q106 0 187 -22.5t110 -46.5l28 -24l4 -6q-39 -129 -47 -205l-20 -2q-41 96 -118 155.5t-161 59.5 q-78 0 -125 -24q-39 -20 -66.5 -74.5t-27.5 -109.5q0 -59 22.5 -106.5t65.5 -78t77 -48t85 -36.5q367 -137 367 -409q0 -176 -127 -283.5t-320 -107.5q-106 0 -199.5 22.5t-133.5 45.5l-40 24l-4 6q41 152 48 211l20 2q47 -90 143.5 -155.5t182.5 -65.5zM578 1679 q88 -41 127 -106l-295 -119q-57 -25 -86 -24q-31 0 -31 30q0 23 31 43z"></glyph>
      <glyph glyph-name="sacute" unicode="ś" d="M102 207l31 2q106 -147 242 -148q84 0 136 45.5t52 124.5q0 70 -50 104t-157 62q-115 31 -180 86.5t-65 165.5q0 119 92 184.5t217 65.5q158 0 276 -61l4 -7l-41 -151l-28 -2q-39 45 -57.5 64.5t-65.5 47t-96 27.5q-68 0 -112 -33.5t-44 -95.5q0 -115 190 -160 q127 -31 203 -92t76 -176q0 -47 -15.5 -92t-51 -90t-108.5 -71.5t-173 -26.5q-152 0 -309 55zM465 1374q12 4 29 4q63 0 112 -47l6 -22l-235 -224q-39 -39 -62 -38q-10 0 -19 8t-9 18q0 20 23 57z"></glyph>
      <glyph glyph-name="Scircumflex" unicode="Ŝ" d="M512 1663q84 -100 207 -193l-33 -43q-127 59 -217 127q-102 -76 -219 -127l-29 43q88 66 203 193h88zM496 70q96 0 167.5 64.5t71.5 174.5q0 119 -61.5 183.5t-177.5 113.5q-76 31 -129.5 61.5t-108.5 77t-85 108.5t-30 140q0 106 64.5 192.5t161.5 127.5q84 35 176 35 q106 0 187 -22.5t110 -46.5l28 -24l4 -6q-39 -129 -47 -205l-20 -2q-41 96 -118 155.5t-161 59.5q-78 0 -125 -24q-39 -20 -66.5 -74.5t-27.5 -109.5q0 -59 22.5 -106.5t65.5 -78t77 -48t85 -36.5q367 -137 367 -409q0 -176 -127 -283.5t-320 -107.5q-106 0 -199.5 22.5 t-133.5 45.5l-40 24l-4 6q41 152 48 211l20 2q47 -90 143.5 -155.5t182.5 -65.5z"></glyph>
      <glyph glyph-name="scircumflex" unicode="ŝ" d="M102 207l31 2q106 -147 242 -148q84 0 136 45.5t52 124.5q0 70 -50 104t-157 62q-115 31 -180 86.5t-65 165.5q0 119 92 184.5t217 65.5q158 0 276 -61l4 -7l-41 -151l-28 -2q-39 45 -57.5 64.5t-65.5 47t-96 27.5q-68 0 -112 -33.5t-44 -95.5q0 -115 190 -160 q127 -31 203 -92t76 -176q0 -47 -15.5 -92t-51 -90t-108.5 -71.5t-173 -26.5q-152 0 -309 55zM451 1323q68 -109 206 -264l-43 -29q-145 106 -217 184q-90 -92 -219 -184l-41 29q147 164 211 264h103z"></glyph>
      <glyph glyph-name="Scedilla" unicode="Ş" d="M494 -223q-53 0 -93 -13l-12 13l82 196h70l-52 -137q25 6 54 6q63 0 104 -34.5t41 -92.5q0 -66 -62.5 -108.5t-156.5 -42.5q-72 0 -152 35q0 33 21 53q78 -29 119 -29q47 0 75.5 21.5t28.5 60.5q1 72 -67 72zM496 70q96 0 167.5 64.5t71.5 174.5q0 119 -61.5 183.5 t-177.5 113.5q-76 31 -129.5 61.5t-108.5 77t-85 108.5t-30 140q0 106 64.5 192.5t161.5 127.5q84 35 176 35q106 0 187 -22.5t110 -46.5l28 -24l4 -6q-39 -129 -47 -205l-20 -2q-41 96 -118 155.5t-161 59.5q-78 0 -125 -24q-39 -20 -66.5 -74.5t-27.5 -109.5 q0 -59 22.5 -106.5t65.5 -78t77 -48t85 -36.5q367 -137 367 -409q0 -176 -127 -283.5t-320 -107.5q-106 0 -199.5 22.5t-133.5 45.5l-40 24l-4 6q41 152 48 211l20 2q47 -90 143.5 -155.5t182.5 -65.5z"></glyph>
      <glyph glyph-name="scedilla" unicode="ş" d="M102 207l31 2q106 -147 242 -148q84 0 136 45.5t52 124.5q0 70 -50 104t-157 62q-115 31 -180 86.5t-65 165.5q0 119 92 184.5t217 65.5q158 0 276 -61l4 -7l-41 -151l-28 -2q-39 45 -57.5 64.5t-65.5 47t-96 27.5q-68 0 -112 -33.5t-44 -95.5q0 -115 190 -160 q127 -31 203 -92t76 -176q0 -47 -15.5 -92t-51 -90t-108.5 -71.5t-173 -26.5h67l-51 -138q25 6 53 6q63 0 104.5 -34.5t41.5 -92.5q0 -66 -62.5 -108.5t-156.5 -42.5q-72 0 -152 35q0 33 21 53q78 -29 118 -29q47 0 76 21.5t29 60.5q0 72 -68 72q-53 0 -92 -12l-12 12 l82 197h2q-152 0 -309 55z"></glyph>
      <glyph glyph-name="Scaron" unicode="Š" d="M440 1427q-74 92 -207 195l33 41q123 -53 217 -125q117 82 219 125l31 -41q-102 -78 -205 -195h-88zM496 70q96 0 167.5 64.5t71.5 174.5q0 119 -61.5 183.5t-177.5 113.5q-76 31 -129.5 61.5t-108.5 77t-85 108.5t-30 140q0 106 64.5 192.5t161.5 127.5q84 35 176 35 q106 0 187 -22.5t110 -46.5l28 -24l4 -6q-39 -129 -47 -205l-20 -2q-41 96 -118 155.5t-161 59.5q-78 0 -125 -24q-39 -20 -66.5 -74.5t-27.5 -109.5q0 -59 22.5 -106.5t65.5 -78t77 -48t85 -36.5q367 -137 367 -409q0 -176 -127 -283.5t-320 -107.5q-106 0 -199.5 22.5 t-133.5 45.5l-40 24l-4 6q41 152 48 211l20 2q47 -90 143.5 -155.5t182.5 -65.5z"></glyph>
      <glyph glyph-name="scaron" unicode="š" d="M102 207l31 2q106 -147 242 -148q84 0 136 45.5t52 124.5q0 70 -50 104t-157 62q-115 31 -180 86.5t-65 165.5q0 119 92 184.5t217 65.5q158 0 276 -61l4 -7l-41 -151l-28 -2q-39 45 -57.5 64.5t-65.5 47t-96 27.5q-68 0 -112 -33.5t-44 -95.5q0 -115 190 -160 q127 -31 203 -92t76 -176q0 -47 -15.5 -92t-51 -90t-108.5 -71.5t-173 -26.5q-152 0 -309 55zM346 1028q-78 127 -207 266l41 27q145 -106 217 -184q78 80 221 184l39 -27q-137 -154 -208 -266h-103z"></glyph>
      <glyph glyph-name="Tcedilla" unicode="Ţ" d="M590 -188q-53 0 -92 -13l-13 13l79 188h-11q-68 0 -104 -6l-5 6q20 139 21 410v501q0 240 -16 295q-123 0 -226.5 -7t-145.5 -14l-42 -7l-4 8q6 47 0 135l4 6q49 -6 123 -6h790q74 0 123 6l4 -6q-6 -88 0 -135l-4 -8q-139 29 -414 28q-16 -55 -16 -295v-501 q0 -264 21 -410l-5 -6q-5 1 -11 1.5t-13 1.5l-47 -126q25 6 53 6q63 0 104 -35t41 -92q0 -66 -62.5 -108.5t-156.5 -42.5q-72 0 -151 34q0 33 20 54q78 -29 119 -29q47 0 75.5 21.5t28.5 60.5q1 72 -67 72z"></glyph>
      <glyph glyph-name="tcedilla" unicode="ţ" d="M344 -217q-53 0 -92 -12l-12 12l82 197h47q-76 0 -128.5 51t-52.5 145q0 23 3.5 142.5t3.5 189.5v280q-96 0 -146 -4l-10 15q29 45 45 84q29 -4 111 -4q0 63 4 145t4 117l4 6q31 4 52.5 11t49 20.5t41.5 19.5q18 0 19 -20q-10 -131 -11 -299h97q39 0 143 4l10 -15 q-16 -41 -24 -84q-41 4 -148 4h-78v-258q0 -70 -3 -159.5t-3 -112.5q0 -158 68 -168q79 -13 161 16l25 -51q-119 -76 -237 -75h22l-51 -138q25 6 53 6q63 0 104.5 -34.5t41.5 -92.5q0 -66 -62.5 -108.5t-157.5 -42.5q-72 0 -151 35q0 33 20 53q78 -29 119 -29q47 0 76 21.5 t29 60.5q0 72 -68 72z"></glyph>
      <glyph glyph-name="Tcaron" unicode="Ť" d="M518 1427q-74 92 -207 195l33 41q123 -53 217 -125q117 82 219 125l31 -41q-102 -78 -205 -195h-88zM465 911q0 240 -16 295q-123 0 -226.5 -7t-145.5 -14l-42 -7l-4 8q6 47 0 135l4 6q49 -6 123 -6h790q74 0 123 6l4 -6q-6 -88 0 -135l-4 -8q-139 29 -414 28 q-16 -55 -16 -295v-501q0 -264 21 -410l-5 -6q-37 6 -104.5 6t-103.5 -6l-5 6q20 139 21 410v501z"></glyph>
      <glyph glyph-name="tcaron" unicode="ť" d="M543 1430q55 0 89 -45.5t34 -104.5q0 -66 -55.5 -136.5t-153.5 -80.5l-11 35q59 12 94 56t35 85q0 43 -28 43q-94 0 -94 78q0 27 23.5 48.5t66.5 21.5zM195 879q0 63 4 145t4 117l4 6q31 4 52.5 11t49 20.5t41.5 19.5q18 0 19 -20q-10 -131 -11 -299h97q39 0 143 4 l10 -15q-16 -41 -24 -84q-41 4 -148 4h-78v-258q0 -70 -3 -159.5t-3 -112.5q0 -158 68 -168q79 -13 161 16l25 -51q-119 -76 -237 -75q-76 0 -128.5 51t-52.5 145q0 23 3.5 142.5t3.5 189.5v280q-96 0 -146 -4l-10 15q29 45 45 84q29 -4 111 -4z"></glyph>
      <glyph glyph-name="Tbar" unicode="Ŧ" d="M207 674v80h258v157q0 240 -16 295q-123 0 -226.5 -7t-145.5 -14l-42 -7l-4 8q6 47 0 135l4 6q49 -6 123 -6h790q74 0 123 6l4 -6q-6 -88 0 -135l-4 -8q-139 29 -414 28q-16 -55 -16 -295v-157h277v-80h-277v-264q0 -264 21 -410l-5 -6q-37 6 -104.5 6t-103.5 -6l-5 6 q20 139 21 410v264h-258z"></glyph>
      <glyph glyph-name="tbar" unicode="ŧ" d="M559 582v-80h-201q0 -59 -3 -139t-3 -105q0 -158 68 -168q79 -13 161 16l25 -51q-119 -76 -237 -75q-76 0 -128.5 51t-52.5 145q0 23 3.5 140.5t3.5 185.5h-154v80h154v206q-96 0 -146 -4l-10 15q29 45 45 84q29 -4 111 -4q0 63 4 145t4 117l4 6q31 4 52.5 11t49 20.5 t41.5 19.5q18 0 19 -20q-10 -131 -11 -299h97q39 0 143 4l10 -15q-16 -41 -24 -84q-41 4 -148 4h-78v-206h201z"></glyph>
      <glyph glyph-name="Utilde" unicode="Ũ" d="M846 1520q35 0 58.5 22.5t43.5 83.5l49 -12q-37 -184 -178 -184q-51 0 -131 53q-74 45 -110 45q-39 0 -61.5 -23.5t-39.5 -74.5l-49 10q23 92 60.5 137t103 45t147.5 -57q60 -45 107 -45zM1114 911q0 264 -20 410l4 6q37 -6 71.5 -6t71.5 6l4 -6q-20 -135 -20 -410v-307 q0 -299 -120 -461.5t-415 -162.5q-80 0 -154.5 21.5t-151.5 72.5t-124 156.5t-47 252.5v428q0 264 -20 410l4 6q37 -6 104.5 -6t104.5 6l4 -6q-20 -135 -21 -410v-360q0 -457 344 -457q100 0 172 29t112 71t62.5 109.5t28.5 125.5t6 138v344z"></glyph>
      <glyph glyph-name="utilde" unicode="ũ" d="M682 1167q35 0 58.5 22.5t43.5 84.5l50 -12q-37 -184 -179 -185q-51 0 -131 53q-74 45 -110 46q-39 0 -61.5 -24t-39.5 -75l-49 10q23 92 60.5 137.5t103.5 45.5t147 -58q60 -45 107 -45zM748 188q-57 -88 -139.5 -148t-170.5 -60q-141 0 -204.5 81.5t-63.5 202.5v246 q0 238 -18 369l4 6q37 -6 96 -6t96 6l4 -6q-18 -123 -18 -369v-203q0 -129 36 -171t101 -42q72 0 150.5 64.5t130.5 150.5v201q0 233 -19 369l4 6q37 -6 96.5 -6t96.5 6l4 -6q-18 -123 -19 -369v-117q0 -207 35 -393l-4 -6q-41 6 -91 6q-24 0 -71 -6q-18 0 -18 6l-10 182z "></glyph>
      <glyph glyph-name="Umacron" unicode="Ū" d="M948 1499h-499q-27 0 -27 31q0 18 14.5 38.5t30.5 20.5h502q29 0 28 -28q0 -20 -15.5 -41t-33.5 -21zM1114 911q0 264 -20 410l4 6q37 -6 71.5 -6t71.5 6l4 -6q-20 -135 -20 -410v-307q0 -299 -120 -461.5t-415 -162.5q-80 0 -154.5 21.5t-151.5 72.5t-124 156.5 t-47 252.5v428q0 264 -20 410l4 6q37 -6 104.5 -6t104.5 6l4 -6q-20 -135 -21 -410v-360q0 -457 344 -457q100 0 172 29t112 71t62.5 109.5t28.5 125.5t6 138v344z"></glyph>
      <glyph glyph-name="umacron" unicode="ū" d="M788 1102h-499q-27 0 -27 31q0 18 14.5 38.5t30.5 20.5h502q29 0 29 -29q0 -20 -16 -40.5t-34 -20.5zM748 188q-57 -88 -139.5 -148t-170.5 -60q-141 0 -204.5 81.5t-63.5 202.5v246q0 238 -18 369l4 6q37 -6 96 -6t96 6l4 -6q-18 -123 -18 -369v-203q0 -129 36 -171 t101 -42q72 0 150.5 64.5t130.5 150.5v201q0 233 -19 369l4 6q37 -6 96.5 -6t96.5 6l4 -6q-18 -123 -19 -369v-117q0 -207 35 -393l-4 -6q-41 6 -91 6q-24 0 -71 -6q-18 0 -18 6l-10 182z"></glyph>
      <glyph glyph-name="Ubreve" unicode="Ŭ" d="M991 1647q-8 -104 -90 -168t-188 -64q-115 0 -193 62.5t-86 169.5h58q12 -57 74.5 -91t146.5 -34q80 0 145.5 33.5t75.5 91.5h57zM1114 911q0 264 -20 410l4 6q37 -6 71.5 -6t71.5 6l4 -6q-20 -135 -20 -410v-307q0 -299 -120 -461.5t-415 -162.5q-80 0 -154.5 21.5 t-151.5 72.5t-124 156.5t-47 252.5v428q0 264 -20 410l4 6q37 -6 104.5 -6t104.5 6l4 -6q-20 -135 -21 -410v-360q0 -457 344 -457q100 0 172 29t112 71t62.5 109.5t28.5 125.5t6 138v344z"></glyph>
      <glyph glyph-name="ubreve" unicode="ŭ" d="M307 1323q16 -82 77.5 -133t143.5 -51t144.5 49t77.5 135l55 -25q-18 -127 -99 -201.5t-178 -74.5q-109 0 -182.5 72.5t-93.5 203.5zM748 188q-57 -88 -139.5 -148t-170.5 -60q-141 0 -204.5 81.5t-63.5 202.5v246q0 238 -18 369l4 6q37 -6 96 -6t96 6l4 -6 q-18 -123 -18 -369v-203q0 -129 36 -171t101 -42q72 0 150.5 64.5t130.5 150.5v201q0 233 -19 369l4 6q37 -6 96.5 -6t96.5 6l4 -6q-18 -123 -19 -369v-117q0 -207 35 -393l-4 -6q-41 6 -91 6q-24 0 -71 -6q-18 0 -18 6l-10 182z"></glyph>
      <glyph glyph-name="Uring" unicode="Ů" d="M711 1595q-47 0 -75 -33.5t-28 -80.5q0 -45 29 -80t74 -35t73.5 35t28.5 80q0 49 -28.5 81.5t-73.5 32.5zM532 1480.5q0 69.5 53.5 120t125 50.5t125 -49.5t53.5 -120.5q0 -70 -52.5 -120t-125.5 -50q-72 0 -125.5 50t-53.5 119.5zM1114 911q0 264 -20 410l4 6 q37 -6 71.5 -6t71.5 6l4 -6q-20 -135 -20 -410v-307q0 -299 -120 -461.5t-415 -162.5q-80 0 -154.5 21.5t-151.5 72.5t-124 156.5t-47 252.5v428q0 264 -20 410l4 6q37 -6 104.5 -6t104.5 6l4 -6q-20 -135 -21 -410v-360q0 -457 344 -457q100 0 172 29t112 71t62.5 109.5 t28.5 125.5t6 138v344z"></glyph>
      <glyph glyph-name="uring" unicode="ů" d="M514 1309q-47 0 -74.5 -34t-27.5 -81q0 -45 28.5 -80t73.5 -35t73.5 35t28.5 80q0 49 -28.5 82t-73.5 33zM336 1194q0 70 53 120t125 50t125 -49t53 -121q0 -70 -52 -120t-126 -50q-72 0 -125 50t-53 120zM748 188q-57 -88 -139.5 -148t-170.5 -60q-141 0 -204.5 81.5 t-63.5 202.5v246q0 238 -18 369l4 6q37 -6 96 -6t96 6l4 -6q-18 -123 -18 -369v-203q0 -129 36 -171t101 -42q72 0 150.5 64.5t130.5 150.5v201q0 233 -19 369l4 6q37 -6 96.5 -6t96.5 6l4 -6q-18 -123 -19 -369v-117q0 -207 35 -393l-4 -6q-41 6 -91 6q-24 0 -71 -6 q-18 0 -18 6l-10 182z"></glyph>
      <glyph glyph-name="Uhungarumlaut" unicode="Ű" d="M1053 1622q0 -27 -15 -41l-202 -172q-6 -6 -17 -6q-8 0 -17 7t-9 20q0 5 1.5 10t5.5 12l122 223q16 25 47 25q41 0 62.5 -24.5t21.5 -53.5zM784 1632q0 -27 -14 -39l-180 -165q-17 -15 -29 -15q-27 0 -26 25q0 12 5 22l111 226q14 25 56 24q27 0 52 -22.5t25 -55.5z M1114 911q0 264 -20 410l4 6q37 -6 71.5 -6t71.5 6l4 -6q-20 -135 -20 -410v-307q0 -299 -120 -461.5t-415 -162.5q-80 0 -154.5 21.5t-151.5 72.5t-124 156.5t-47 252.5v428q0 264 -20 410l4 6q37 -6 104.5 -6t104.5 6l4 -6q-20 -135 -21 -410v-360q0 -457 344 -457 q100 0 172 29t112 71t62.5 109.5t28.5 125.5t6 138v344z"></glyph>
      <glyph glyph-name="uhungarumlaut" unicode="ű" d="M885 1251q0 -25 -15 -39l-233 -225q-4 -4 -12.5 -4t-18.5 8t-10 19q0 6 2 8l160 285q14 25 49 24q31 0 54.5 -23.5t23.5 -52.5zM614 1264q0 -20 -10 -33l-209 -248q-6 -6 -16 -6q-29 0 -29 27q0 4 2 6l131 299q12 29 54 28q33 0 55 -21t22 -52zM748 188 q-57 -88 -139.5 -148t-170.5 -60q-141 0 -204.5 81.5t-63.5 202.5v246q0 238 -18 369l4 6q37 -6 96 -6t96 6l4 -6q-18 -123 -18 -369v-203q0 -129 36 -171t101 -42q72 0 150.5 64.5t130.5 150.5v201q0 233 -19 369l4 6q37 -6 96.5 -6t96.5 6l4 -6q-18 -123 -19 -369v-117 q0 -207 35 -393l-4 -6q-41 6 -91 6q-24 0 -71 -6q-18 0 -18 6l-10 182z"></glyph>
      <glyph glyph-name="Uogonek" unicode="Ų" d="M1075 -260q-94 -115 -203 -115q-76 0 -118.5 42t-42.5 114q0 102 95 206q-55 -8 -116 -7q-80 0 -154.5 21.5t-151.5 72.5t-124 156.5t-47 252.5v428q0 264 -20 410l4 6q37 -6 104.5 -6t104.5 6l4 -6q-20 -135 -21 -410v-360q0 -457 344 -457q100 0 172 29t112 71 t62.5 109.5t28.5 125.5t6 138v344q0 264 -20 410l4 6q37 -6 71.5 -6t71.5 6l4 -6q-20 -135 -20 -410v-307q0 -435 -243 -563q-15 -8 -27 -14q-56 -61 -82.5 -112t-26.5 -112q0 -35 23.5 -61.5t62.5 -26.5q51 0 108 62l7 -2z"></glyph>
      <glyph glyph-name="uogonek" unicode="ų" d="M711 -426q-86 0 -138.5 42t-52.5 124t68.5 172t174.5 138l-7 132l-8 6q-57 -88 -139.5 -148t-170.5 -60q-141 0 -204.5 81.5t-63.5 202.5v246q0 238 -18 369l4 6q37 -6 96 -6t96 6l4 -6q-18 -123 -18 -369v-203q0 -129 36 -171t101 -42q72 0 150.5 64.5t130.5 150.5v201 q0 233 -19 369l4 6q37 -6 96.5 -6t96.5 6l4 -6q-18 -123 -19 -369v-117q0 -207 35 -393l-4 -6q-41 6 -91 6q-24 0 -71 -6q-7 0 -12 1q-58 -40 -93.5 -103t-35.5 -117q0 -51 33 -85t88 -34q72 0 141 70l31 -15q-35 -68 -99.5 -102.5t-125.5 -34.5z"></glyph>
      <glyph glyph-name="Wcircumflex" unicode="Ŵ" d="M979 1649q84 -100 207 -193l-33 -43q-127 59 -217 127q-102 -76 -219 -127l-29 43q88 66 203 193h88zM1319 270q6 14 50 114.5t55.5 128.5t51.5 121t56 133t49 120t50.5 127t41 109.5t37.5 111.5t27 92q25 -6 102 -6q47 0 72 6q-397 -872 -604 -1347h-58 q-120 337 -269 740l-329 -740h-57q-68 162 -197 480t-224 546.5t-140 320.5q35 -6 123 -6q68 0 102 6q121 -426 404 -1075h4q204 474 260 612q-39 104 -71.5 190.5t-60 158t-44.5 114.5q35 -6 122 -6q78 0 113 6q55 -250 330 -1057h4z"></glyph>
      <glyph glyph-name="wcircumflex" unicode="ŵ" d="M803 1321q68 -109 207 -264l-43 -29q-145 106 -217 184q-90 -92 -220 -184l-41 29q147 164 211 264h103zM410 -8q-199 518 -369 891q33 -6 108.5 -6t102.5 6q6 -18 36 -113.5t39 -124.5t35.5 -108.5t43 -124t41.5 -109t50 -121.5h13q64 137 173 446q-52 145 -89 257 q33 -6 108.5 -6t102.5 6q93 -429 196 -700h16q121 282 253 700q18 -6 69 -6q70 0 88 6q-123 -270 -380 -891q-18 6 -76 6q-33 0 -53 -6q-30 83 -92 248t-91 244q-61 -148 -184 -494q-18 6 -74 6q-47 0 -67 -6z"></glyph>
      <glyph glyph-name="Ycircumflex" unicode="Ŷ" d="M643 1649q84 -100 207 -193l-33 -43q-127 59 -217 127q-102 -76 -219 -127l-29 43q88 66 203 193h88zM682 584q4 -475 14 -590q-37 6 -102.5 6t-101.5 -6q14 158 14 569q-61 104 -237.5 390t-235.5 374q51 -6 117 -6q63 0 116 6q49 -96 359 -631q229 360 358 631 q37 -6 86 -6q45 0 86 6q-63 -98 -161.5 -246.5t-140.5 -213t-91 -144.5t-80 -139z"></glyph>
      <glyph glyph-name="ycircumflex" unicode="ŷ" d="M598 1323q68 -109 207 -264l-43 -29q-145 106 -217 184q-90 -92 -219 -184l-41 29q147 164 211 264h102zM57 885q29 -6 107 -6q74 0 100 6q68 -209 274 -706h4q138 294 269 706q20 -6 80 -6q68 0 88 6q-88 -178 -315.5 -691t-278.5 -679q-35 10 -100 10q-37 0 -72 -10 q147 248 242 465q-42 110 -398 905z"></glyph>
      <glyph glyph-name="Ydieresis" unicode="Ÿ" d="M358 1536q0 41 29 69.5t68 28.5t67.5 -28.5t28.5 -69.5t-27.5 -68.5t-68.5 -27.5t-69 27.5t-28 68.5zM705 1536q0 41 28.5 69.5t67.5 28.5t67.5 -28.5t28.5 -69.5t-28.5 -68.5t-67.5 -27.5t-67.5 27.5t-28.5 68.5zM682 584q4 -475 14 -590q-37 6 -102.5 6t-101.5 -6 q14 158 14 569q-61 104 -237.5 390t-235.5 374q51 -6 117 -6q63 0 116 6q49 -96 359 -631q229 360 358 631q37 -6 86 -6q45 0 86 6q-63 -98 -161.5 -246.5t-140.5 -213t-91 -144.5t-80 -139z"></glyph>
      <glyph glyph-name="Zacute" unicode="Ź" d="M713 1679q88 -41 127 -106l-295 -119q-57 -25 -86 -24q-31 0 -31 30q0 23 31 43zM383 111q119 0 313.5 10t329.5 21l135 12l4 -7q-4 -33 -4 -67q0 -23 4 -80l-4 -6q-49 6 -145 6h-744l-178 -6l-6 8q12 16 30.5 44t22.5 32l756 1108q16 25 -6 24q-113 0 -225.5 -7 t-257 -18t-244.5 -18l-4 7q4 33 4 67q0 23 -4 80l4 6q49 -6 125 -6h622q166 0 258 12q12 0 13 -12q0 -25 -62 -111l-727 -1063q-10 -13 -10 -36z"></glyph>
      <glyph glyph-name="zacute" unicode="ź" d="M524 1374q12 4 29 4q63 0 113 -47l6 -22l-236 -224q-39 -39 -61 -38q-10 0 -19.5 8t-9.5 18q0 20 23 57zM278 102q111 1 239 6.5t201 11.5l73 5l4 -6q-4 -33 -4 -64q0 -2 4 -55l-4 -6q-45 6 -115 6h-463l-166 -6l-6 9q12 13 45 63l481 710q-104 -1 -220.5 -7t-181.5 -11 l-65 -4l-4 6q4 33 4 63q0 2 -4 56l4 6q47 -6 115 -6h418q20 0 49 2t52 4t42 4t22 2q6 0 8.5 -3t2.5 -9q-14 -16 -61 -86z"></glyph>
      <glyph glyph-name="Zdotaccent" unicode="Ż" d="M520 1599q0 43 32 75t75 32t74.5 -32t31.5 -75t-31.5 -74.5t-74.5 -31.5t-75 31.5t-32 74.5zM383 111q119 0 313.5 10t329.5 21l135 12l4 -7q-4 -33 -4 -67q0 -23 4 -80l-4 -6q-49 6 -145 6h-744l-178 -6l-6 8q12 16 30.5 44t22.5 32l756 1108q16 25 -6 24 q-113 0 -225.5 -7t-257 -18t-244.5 -18l-4 7q4 33 4 67q0 23 -4 80l4 6q49 -6 125 -6h622q166 0 258 12q12 0 13 -12q0 -25 -62 -111l-727 -1063q-10 -13 -10 -36z"></glyph>
      <glyph glyph-name="zdotaccent" unicode="ż" d="M336 1223q0 41 31.5 72.5t72.5 31.5t73 -31.5t32 -72.5t-32 -73t-73 -32t-72.5 32t-31.5 73zM278 102q111 1 239 6.5t201 11.5l73 5l4 -6q-4 -33 -4 -64q0 -2 4 -55l-4 -6q-45 6 -115 6h-463l-166 -6l-6 9q12 13 45 63l481 710q-104 -1 -220.5 -7t-181.5 -11l-65 -4l-4 6 q4 33 4 63q0 2 -4 56l4 6q47 -6 115 -6h418q20 0 49 2t52 4t42 4t22 2q6 0 8.5 -3t2.5 -9q-14 -16 -61 -86z"></glyph>
      <glyph glyph-name="Zcaron" unicode="Ž" d="M573 1427q-74 92 -206 195l32 41q123 -53 217 -125q117 82 220 125l30 -41q-102 -78 -204 -195h-89zM383 111q119 0 313.5 10t329.5 21l135 12l4 -7q-4 -33 -4 -67q0 -23 4 -80l-4 -6q-49 6 -145 6h-744l-178 -6l-6 8q12 16 30.5 44t22.5 32l756 1108q16 25 -6 24 q-113 0 -225.5 -7t-257 -18t-244.5 -18l-4 7q4 33 4 67q0 23 -4 80l4 6q49 -6 125 -6h622q166 0 258 12q12 0 13 -12q0 -25 -62 -111l-727 -1063q-10 -13 -10 -36z"></glyph>
      <glyph glyph-name="zcaron" unicode="ž" d="M385 1026q-78 127 -207 266l41 27q145 -106 217 -184q78 80 221 184l39 -27q-137 -154 -209 -266h-102zM278 102q111 1 239 6.5t201 11.5l73 5l4 -6q-4 -33 -4 -64q0 -2 4 -55l-4 -6q-45 6 -115 6h-463l-166 -6l-6 9q12 13 45 63l481 710q-104 -1 -220.5 -7t-181.5 -11 l-65 -4l-4 6q4 33 4 63q0 2 -4 56l4 6q47 -6 115 -6h418q20 0 49 2t52 4t42 4t22 2q6 0 8.5 -3t2.5 -9q-14 -16 -61 -86z"></glyph>
      <glyph glyph-name="longs" unicode="ſ" d="M348 899v-489q0 -272 21 -410l-4 -6q-29 6 -99 6l-100 -6l-2 6q20 129 20 410v346q0 33 -24 32h-90q-10 0 -11 11v39q0 41 47 41q78 0 78 98q0 125 12.5 174t65.5 123q115 156 309 156q63 0 93 -19l2 -6q-25 -43 -58 -168l-22 -2q-39 72 -119 72t-104.5 -54.5 t-24.5 -156.5q0 -16 5 -92t5 -105z"></glyph>
      <glyph glyph-name="uni0180" unicode="ƀ" d="M541 1130v-69h-209v-37v-227q94 102 256 102q154 0 265.5 -121t111.5 -303q0 -242 -132.5 -368.5t-308.5 -126.5q-125 0 -241 100q-33 -61 -68 -100q-41 0 -57 16q10 53 10 154v837q0 37 -1 74h-151v69h149q-6 162 -22 252l4 7q92 6 179 41q18 0 18 -21 q-10 -129 -12 -279h209zM332 166q33 -41 84 -73t96 -32q141 0 205.5 100.5t64.5 297.5q0 180 -66.5 269t-168.5 89q-59 0 -104.5 -27.5t-110.5 -93.5v-530z"></glyph>
      <glyph glyph-name="uni0181" unicode="Ɓ" d="M506 1241v-477h162q174 0 239.5 70.5t65.5 164.5q0 250 -303 250q-101 0 -164 -8zM506 684v-608q80 -10 180 -10q207 0 295 91t88 218q0 49 -14.5 98t-48 99.5t-101 81t-162.5 30.5h-237zM10 1044q0 98 87 187.5t233 89.5h411q111 0 192 -30.5t121 -81t57 -101.5t17 -104 q0 -82 -53 -155t-135 -114q119 -31 192.5 -98.5t97 -132t23.5 -129.5q0 -160 -130 -269.5t-289 -109.5q-88 0 -231.5 2t-180.5 2l-234 -4v43q0 16 13 16h63q29 0 44.5 5.5t22.5 19.5t8 26.5t1 40.5v1029q0 90 -41 90q-66 0 -112 -38t-46 -93q0 -16 9 -50l6 -43 q0 -37 -21.5 -55t-50.5 -18q-31 0 -52.5 22t-21.5 53z"></glyph>
      <glyph glyph-name="uni0182" unicode="Ƃ" d="M352 711v-625q98 -16 174 -16q371 0 371 315q0 61 -16.5 114.5t-53 103.5t-109.5 79t-175 29h-191zM186 1180q0 55 -14 70.5t-66 15.5h-61q-10 0 -10 8v47h923l27 -287l-53 -6q-35 127 -89.5 171t-135.5 44h-355v-463h117q301 0 451.5 -87t150.5 -312q0 -180 -124 -280.5 t-300 -100.5h-612v45q0 6 10 10h61q80 0 80 99v1026z"></glyph>
      <glyph glyph-name="uni0183" unicode="ƃ" d="M305 111q49 -61 148 -62q141 0 216.5 112.5t75.5 295.5q0 154 -67.5 253t-163.5 99q-125 0 -209 -86v-612zM389 1409h412l28 -287l-53 -6q-23 88 -72 155.5t-122 67.5h-277v-553q104 113 250 113q139 0 243.5 -117.5t104.5 -298.5q0 -229 -134 -366t-304 -137 q-129 0 -213 71q-16 -23 -64 -76l-43 11q6 47 7 159v1039q0 84 -14.5 114.5t-47.5 30.5l-65 -6q-10 0 -11 10l-4 51q148 25 379 25z"></glyph>
      <glyph glyph-name="uni0184" unicode="Ƅ" d="M365 711v-627q72 -14 174 -14q371 0 370 315q0 61 -16 114.5t-53 103.5t-110 79t-175 29h-190zM199 946q0 94 -39 147.5t-101 65.5v70q143 27 250 119h56v-568h114q301 0 452.5 -87t151.5 -312q0 -180 -123.5 -280.5t-300.5 -100.5h-612v45q0 8 10 10h62q80 0 80 97v794z "></glyph>
      <glyph glyph-name="uni0185" unicode="ƅ" d="M319 113q53 -63 150 -64q139 0 216 115t77 297q0 154 -67.5 252t-166.5 98q-125 0 -209 -86v-612zM168 1026q0 178 -143 213v70q143 31 249 121h45v-642q102 111 252 111q139 0 244 -115.5t105 -296.5q0 -229 -135.5 -368t-305.5 -139q-125 0 -213 73q-14 -20 -63 -76 l-41 11q6 74 6 162v876z"></glyph>
      <glyph glyph-name="uni0186" unicode="Ɔ" d="M545 -20q-111 0 -222.5 22.5t-167.5 45.5l-57 24l-4 6q35 147 41 227l21 2q115 -231 417 -231q68 0 139.5 31.5t139.5 95t111 178.5t43 262q0 156 -50.5 289t-160 222t-260.5 89q-141 0 -233.5 -45t-203.5 -166l-49 39q211 276 504 277q211 0 365.5 -99.5t226.5 -248 t72 -318.5q0 -295 -203 -498.5t-469 -203.5z"></glyph>
      <glyph glyph-name="uni0187" unicode="Ƈ" d="M1362 1522q39 0 56.5 -24.5t17.5 -49.5q0 -72 -103 -72q-26 0 -59 -26t-58.5 -52t-31.5 -26l41 -17l4 -6q-35 -147 -41 -227l-21 -2q-115 231 -417 231q-68 0 -139.5 -31.5t-139.5 -95t-111 -178.5t-43 -262q0 -156 50.5 -289t160 -222t260.5 -89q141 0 233.5 45 t203.5 166l49 -39q-211 -276 -504 -276q-211 0 -365.5 99t-226.5 247.5t-72 318.5q0 295 203 499t469 204q175 0 351 -57q19 107 93.5 169t139.5 62z"></glyph>
      <glyph glyph-name="uni0188" unicode="ƈ" d="M934 877q-16 0 -52 9t-55 9q-46 0 -78 -37q20 -8 37 -16l5 -6l-48 -168l-26 -2q-6 9 -11.5 17.5l-11 17t-11.5 16.5h-13.5h-13t-10 0.5t-3.5 1.5q1 23 4 38q-20 19 -42 32.5t-45.5 20.5t-47.5 7q-106 0 -180 -98t-74 -262q0 -174 75 -274.5t191 -100.5q123 0 219 86h9 l39 -43q-115 -145 -302 -145q-188 0 -299.5 126.5t-111.5 339.5q0 199 133 326t303 127q88 0 173 -21q41 71 106.5 107.5t124.5 36.5q47 0 66.5 -22.5t19.5 -51.5q0 -33 -18.5 -52t-51.5 -19z"></glyph>
      <glyph glyph-name="uni0189" unicode="Ɖ" d="M389 168q0 -51 39 -66.5t184 -15.5q119 0 206 20.5t163 71.5t116 152.5t40 251.5q0 127 -29 236.5t-92.5 207.5t-179 154.5t-275.5 56.5q-86 0 -129 -16.5t-43 -65.5v-487h201v-80h-201v-420zM301 1321q66 0 169 3t169 3q295 0 502 -204.5t207 -491.5q0 -145 -43 -259 t-110 -182.5t-158 -113.5t-179 -62.5t-182 -17.5q-115 0 -213 2t-162 2l-106 -6l-2 6q20 139 20 410v178h-178v80h178v243q0 264 -20 410l4 6q34 -6 104 -6z"></glyph>
      <glyph glyph-name="uni018A" unicode="Ɗ" d="M549 147q0 -51 39 -66t184 -15q547 0 547 516q0 125 -33 238.5t-99.5 214t-186 159.5t-277.5 59q-90 0 -132 -14t-42 -63v-1029zM150 1042q0 -33 -19.5 -51t-50.5 -18q-76 0 -76 84q0 88 80 177t233 89q27 0 72 -1t74 -1q74 0 191.5 1t144.5 1q295 0 500.5 -202.5 t205.5 -489.5q0 -635 -669 -635q-59 0 -179 2t-194 2l-262 -4v41q0 18 14 18h61q57 0 82 22.5t25 72.5v1021q0 51 -15.5 73t-58.5 22q-68 0 -122 -31t-54 -92q0 -14 8 -51q9 -23 9 -50z"></glyph>
      <glyph glyph-name="uni018B" unicode="Ƌ" d="M795 711h-183q-193 0 -273.5 -95.5t-80.5 -230.5q0 -319 373 -319q72 0 164 18v627zM958 1180v-1028q0 -96 82 -97h62q8 -2 8 -10v-49q-143 4 -233 4q-72 0 -184.5 -2t-182.5 -2q-178 0 -301 102.5t-123 282.5q0 117 41 196.5t123 123.5t186.5 61.5t251.5 17.5h107v463 h-344q-82 0 -136.5 -44t-91.5 -171l-53 6l29 314q102 -27 231 -27h444l236 2v-49q0 -8 -8 -8h-62q-51 0 -66.5 -15.5t-15.5 -70.5z"></glyph>
      <glyph glyph-name="uni018C" unicode="ƌ" d="M684 186v521q-78 123 -201 122q-121 0 -190 -104q-63 -88 -64 -272q0 -186 78 -286.5t172 -100.5q47 0 93 28.5t112 91.5zM836 1430l22 -19q-20 -27 -20 -98v-1067q0 -80 8 -109q10 -31 45 -31q70 0 100 7l8 -58q-219 -37 -268 -80h-49l6 146q-137 -141 -262 -141 q-164 0 -260 121.5t-96 314.5q0 231 129 360q129 123 307 123q98 0 178 -45v438q0 27 -10 37t-37 10h-250q-72 0 -121 -67.5t-71 -155.5l-54 6l29 308q92 -20 217 -21h326q94 9 123 21z"></glyph>
      <glyph glyph-name="uni018D" unicode="ƍ" d="M475 49l35 -26l-16 32q285 102 284 383q0 143 -72.5 267t-203.5 124q-47 0 -88 -14t-85 -52t-71 -119t-27 -200q0 -82 50.5 -180t132.5 -164zM532 4l37 -31q190 -150 191 -243q0 -109 -80 -160t-201 -51q-139 0 -236.5 64.5t-97.5 123.5q0 39 25 57.5t53 18.5 q57 0 105 -90q55 -106 153 -107q172 0 172 123q0 51 -172 185l-145 114q-139 109 -202.5 199t-63.5 215q0 233 136 355t318 122q186 0 299 -121t113 -305q-1 -328 -404 -469z"></glyph>
      <glyph glyph-name="uni018E" unicode="Ǝ" d="M774 410v247q-254 0 -457 -20l-6 6q6 29 6 57.5t-6 57.5l6 6q242 -20 457 -21v168q0 254 -16 310q-123 0 -262.5 -6.5t-216.5 -12.5l-78 -6l-4 8q4 33 4 53q0 6 -4 64l4 6q49 -6 123 -6h538l105 6l4 -6q-20 -145 -21 -410v-501q0 -270 21 -410l-2 -6q-35 6 -107 6h-559 q-74 0 -123 -6l-4 6q4 57 4 59q0 35 -4 68l4 8q303 -25 578 -24q16 55 16 299z"></glyph>
      <glyph glyph-name="uni018F" unicode="Ə" d="M199 1071l-47 49q137 129 231 178.5t252 49.5t280.5 -59.5t193.5 -159t106.5 -217t35.5 -244.5q0 -309 -157.5 -501t-446.5 -192q-141 0 -248.5 45.5t-171 125t-98.5 176t-43 210.5h979q2 23 2 76q0 289 -130 479.5t-335 190.5q-90 0 -169 -34t-121.5 -68.5 t-112.5 -104.5zM250 442q47 -197 152.5 -297t259 -100t254 114.5t131.5 282.5h-797z"></glyph>
      <glyph glyph-name="uni0190" unicode="Ɛ" d="M604 1348q82 0 169 -29t126 -33l39 -293l-64 -10q-33 147 -91 221t-195 74q-129 0 -209 -65.5t-80 -188.5q0 -33 8 -67.5t28.5 -73.5t52.5 -68t85 -48t121 -19h139q35 0 35 -41q0 -39 -35 -39h-198q-150 0 -215.5 -84t-65.5 -203q0 -174 82 -255t213 -81q121 0 224.5 75 t137.5 228l62 -6l-35 -295q-20 -4 -147 -38t-224 -34q-88 0 -166.5 16.5t-155.5 54.5t-122 112.5t-45 181.5q0 154 87 250t208 129q-31 10 -61.5 29.5t-69.5 53.5t-63.5 88t-24.5 118q0 162 136 251t314 89z"></glyph>
      <glyph glyph-name="uni0191" unicode="Ƒ" d="M412 670v-584q0 -139 -33 -241.5t-86 -153.5t-106.5 -74t-106.5 -23q-74 0 -143.5 32t-69.5 104q0 61 63 61q59 0 80 -80q8 -53 70 -53q78 0 123 120t45 349v1049q0 47 -21.5 68.5t-85.5 21.5h-61q-16 0 -17 14v41l9 2l256 -2l151 2h498q12 -158 43 -317l-59 -11 q-20 66 -35 100.5t-41.5 73.5t-65.5 55.5t-94 16.5h-240q-74 0 -73 -65v-437h260q51 0 71.5 21.5t30.5 68.5l14 62q4 16 17 16h45q6 0 6 -8q-16 -125 -16 -194.5t16 -196.5l-4 -6h-47q-14 0 -19 14l-12 64q-8 47 -30.5 68.5t-71.5 21.5h-260z"></glyph>
      <glyph glyph-name="florin" unicode="ƒ" d="M668 1430q111 0 164 -43.5t53 -96.5q0 -33 -17.5 -54.5t-48.5 -21.5q-70 0 -80 52q-18 104 -73 104q-88 0 -125 -262l-29 -227h215l-10 -80h-217l-4 -35q-77 -681 -116 -864q-65 -306 -185 -362q-34 -15 -74 -15q-76 0 -114 39t-38 76q0 25 18.5 46t45.5 21q47 0 67 -43 q4 -8 6.5 -20.5t4.5 -20.5t10 -15t22 -7q49 0 81 61.5t48.5 176t24.5 226t16.5 265t16.5 239.5l24 232h-170l13 80h73q98 0 113 108q27 215 108 328t177 113z"></glyph>
      <glyph glyph-name="uni0193" unicode="Ɠ" d="M1397 1522q39 0 56 -24.5t17 -49.5q0 -72 -102 -72q-8 0 -22.5 1t-18.5 1q-12 0 -16 -2q-68 -12 -89 -96l66 -25l4 -6q-33 -139 -41 -248l-20 -2q-70 117 -185.5 184.5t-252.5 67.5q-211 0 -343.5 -157.5t-132.5 -423.5q0 -106 28 -208t84 -191t156.5 -143t231.5 -54 q219 0 301 78v88q-6 283 -20 389l4 6q35 -6 104 -6l107 6l2 -6q-20 -135 -21 -348v-13q0 -74 21 -98v-6q-219 -184 -545 -184q-299 0 -481.5 196.5t-182.5 472.5q0 164 61.5 299t164 220t229.5 132.5t260 47.5q165 0 344 -51q20 104 94 164.5t138 60.5z"></glyph>
      <glyph glyph-name="uni0194" unicode="Ɣ" d="M596 -41q-41 -61 -72.5 -148t-31.5 -118q0 -70 57 -70q37 0 52 47t15 97q0 106 -20 192zM999 1176q14 35 15 55q0 35 -113 35h-37q-16 0 -16 16v39l4 2q150 -2 229 -2l179 2l4 -2v-39q0 -16 -17 -16q-66 0 -97.5 -18.5t-51.5 -71.5l-393 -1051q25 -88 43 -190.5 t18 -137.5q0 -106 -56.5 -184t-158.5 -78q-78 0 -118 41t-40 96q0 82 160 402l-387 1097q-20 57 -56 76t-94 19q-16 0 -16 16v39l4 2q160 -2 240 -2l254 2l4 -2v-39q0 -16 -17 -16h-55q-98 0 -98 -54q0 -8 8 -41l256 -729l63 -178l64 172z"></glyph>
      <glyph glyph-name="uni0195" unicode="ƕ" d="M180 1153q0 94 -14 127t-47 33l-66 4q-12 0 -12 10l-4 49q63 4 150 21.5t126 32.5q27 0 27 -21q-6 -82 -6 -215v-459q164 164 338 164q221 0 221 -317v-316q0 -195 154 -194q111 0 186.5 128t75.5 285q0 240 -125 263q-86 6 -86 75q0 31 22.5 53.5t61.5 22.5 q201 0 200 -389q0 -262 -99 -398.5t-236 -136.5q-303 0 -308 297v332q0 119 -34.5 159t-124.5 40q-100 0 -246 -144v-512q0 -47 19.5 -68.5t68.5 -21.5h39q16 0 16 -16v-39l-4 -4q-139 4 -219 4l-211 -4l-4 4v39q0 16 14 16h39q49 0 68.5 21.5t19.5 68.5v1006z"></glyph>
      <glyph glyph-name="uni0196" unicode="Ɩ" d="M184 1153q0 94 -14 127t-47 33l-66 4q-12 0 -12 10l-4 49q63 4 150.5 21.5t125.5 32.5q27 0 27 -21q-6 -82 -6 -215v-918q0 -100 14.5 -144t53.5 -44q63 0 137 57l37 -34q-121 -135 -246 -136q-150 0 -150 203v975z"></glyph>
      <glyph glyph-name="uni0197" unicode="Ɨ" d="M561 754v-70h-172v-274q0 -264 21 -410l-4 -6q-37 6 -105 6t-104 -6l-4 6q20 139 20 410v274h-174v70h174v157q0 264 -20 410l4 6q37 -6 104.5 -6t104.5 6l4 -6q-20 -135 -21 -410v-157h172z"></glyph>
      <glyph glyph-name="uni0198" unicode="Ƙ" d="M1073 1348q90 0 151.5 -45.5t61.5 -98.5q0 -31 -22.5 -52.5t-51 -21.5t-47 23t-28 51.5t-31 51t-55.5 22.5q-14 0 -35 -15.5t-49.5 -48t-53 -64.5t-62.5 -81t-65 -80q-37 -43 -96 -107.5t-81.5 -96t-22.5 -52.5q0 -18 28 -51l490 -532q80 -92 160 -93h14q18 0 18 -16v-39 l-6 -4q-154 4 -233 4l-123 -4l-4 4v12q0 90 -41 136l-373 405q-61 65 -127 76v-221q0 -264 21 -410l-4 -6q-37 6 -105 6t-104 -6l-4 6q20 139 20 410v501q0 264 -20 410l4 6q37 -6 104.5 -6t104.5 6l4 -6q-20 -135 -21 -410v-199q28 8 56 27t63 52q131 131 237 262 q25 31 79.5 103.5t80 102t72.5 59.5t96 30z"></glyph>
      <glyph glyph-name="uni0199" unicode="ƙ" d="M180 1016q0 174 73 294t224 120q68 0 130.5 -31t62.5 -74q0 -37 -19.5 -58.5t-46.5 -21.5q-66 0 -86 90q-8 33 -33 33q-70 0 -110.5 -75.5t-40.5 -215.5v-592q78 18 268 226q41 41 41 80q0 33 -59 32h-9q-16 0 -16 17v39l6 4q98 -4 170 -4l191 4l8 -4v-39q0 -16 -23 -17 h-14q-41 0 -99.5 -28.5t-97.5 -69.5l-155 -172q-8 -8 -8 -21q0 -14 10 -28l239 -354q27 -41 71 -67t83 -26h14q18 0 19 -16v-39l-4 -4q-104 4 -185 4l-127 -4l-6 4v39q0 41 -47 109l-149 210q-31 43 -56.5 58.5t-64.5 15.5v-287q0 -47 19.5 -68.5t68.5 -21.5h4q16 0 16 -16 v-39l-4 -4q-104 4 -184 4l-211 -4l-4 4v39q0 16 14 16h39q49 0 68.5 21.5t19.5 68.5v869z"></glyph>
      <glyph glyph-name="uni019A" unicode="ƚ" d="M532 705v-70h-184v-225q0 -274 19 -410l-5 -6q-37 6 -96 6t-96 -6l-4 6q18 131 18 410v225h-176v70h176v282q0 293 -18 395l4 7q92 6 178 41q18 0 19 -21q-18 -248 -19 -385v-319h184z"></glyph>
      <glyph glyph-name="uni019B" unicode="ƛ" d="M713 1262l35 -62l-191 -111l313 -909q51 -125 80 -186q-2 6 -65 6q-24 0 -52 -1q-51 -2 -51 -5q-10 32 -28 100t-39 129l-166 490l-297 -713q-111 -8 -156 -25l-51 25l451 909l-40 120l-194 -114l-35 62l207 121q-13 41 -29 93t-26.5 86.5t-13.5 43.5l-23 62 q-4 11 -9.5 23t-7.5 18l-3 6q42 -10 75 -10q43 0 66 7q6 -49 19 -96q1 -3 9.5 -32t20 -68.5t15.5 -52.5l7 -21z"></glyph>
      <glyph glyph-name="uni019C" unicode="Ɯ" d="M373 1176v-916q0 -186 149 -186q139 0 287 147q-4 27 -4 84v871q0 90 -94 90h-43q-18 0 -19 16v39l4 2q152 -2 238 -2l227 2l6 -2v-39q0 -16 -18 -16h-41q-53 0 -74.5 -22.5t-21.5 -67.5v-912q0 -96 42 -143t109 -47q119 0 277 151v951q0 90 -94 90h-43q-18 0 -19 16v39 l4 2q152 -2 238 -2l227 2l6 -2v-39q0 -16 -18 -16h-41q-53 0 -73.5 -21.5t-20.5 -68.5v-953q0 -80 11 -103.5t38 -23.5q43 0 92 10l10 -55q-160 -27 -229 -59q-37 -16 -55 -17h-33l6 177h-6q-184 -176 -357 -177q-88 0 -149.5 51.5t-71.5 125.5q-182 -176 -377 -177 q-133 0 -184 88.5t-51 243.5v869q0 90 -94 90h-43q-18 0 -19 16v39l4 2q152 -2 238 -2l229 2l4 -2v-39q0 -16 -16 -16h-43q-53 0 -73.5 -22.5t-20.5 -67.5z"></glyph>
      <glyph glyph-name="uni019D" unicode="Ɲ" d="M213 180v946q-6 37 -45 88.5t-105 51.5q-25 0 -24 16v37l6 4h266l715 -903q23 -29 48.5 -66t37.5 -52t21 -15q10 0 10 78v776q0 49 -26.5 87t-84.5 38h-53q-29 0 -29 16v39l11 2q152 -2 225 -2l227 2l4 -2v-39q0 -16 -16 -16h-55q-55 0 -83 -37t-28 -88v-1098 q0 -59 -43 -59q-51 4 -82 45l-715 903q-53 68 -69 67q-20 0 -21 -100v-717q0 -88 -2 -139t-8 -127t-21.5 -121t-40 -91t-65.5 -66.5t-96 -20.5q-68 0 -115 33t-47 67q0 43 21.5 57.5t43.5 14.5q20 0 41 -24.5t29 -57.5q8 -29 41 -29q127 0 127 502z"></glyph>
      <glyph glyph-name="uni019E" unicode="ƞ" d="M340 899l-6 -182h6q92 106 169 144t165 38q129 0 177 -85t48 -239v-903q0 -45 18.5 -64.5t67.5 -23.5l39 -4q18 -2 18 -16v-39l-4 -4q-135 4 -221 4l-201 -4l-4 4v39q0 14 17 16l28 4q49 8 68.5 26.5t19.5 61.5v918q0 113 -27.5 162t-105.5 49q-139 0 -272 -158v-496 q0 -45 18.5 -62t69.5 -26l29 -4q16 -2 16 -16v-39l-4 -4q-127 4 -209 4q-84 0 -213 -4l-4 4v39q0 14 16 16l39 4q51 6 69.5 24.5t18.5 63.5v510q0 72 -10 98.5t-35 28.5l-88 9l-4 49q199 31 283 63q8 0 8 -6z"></glyph>
      <glyph glyph-name="uni019F" unicode="Ɵ" d="M1411 674q0 -307 -181 -500.5t-474 -193.5q-272 0 -461 180t-189 475q0 301 186.5 507t461.5 206q281 0 469 -187.5t188 -486.5zM1198 713q-16 272 -139 408t-332 136q-75 0 -143 -30t-127 -92t-96.5 -170.5t-42.5 -251.5h880zM1200 633h-882q5 -134 47 -243t108.5 -178 t149.5 -105.5t174 -36.5q180 0 291.5 148.5t111.5 414.5z"></glyph>
      <glyph glyph-name="Ohorn" unicode="Ơ" d="M727 1257q-168 0 -289 -144t-121 -443q0 -281 141.5 -440.5t338.5 -159.5q180 0 291.5 148.5t111.5 416.5q0 311 -125 466.5t-348 155.5zM1411 674q0 -307 -181 -500.5t-474 -193.5q-272 0 -461 180t-189 475q0 301 186.5 507t461.5 206q183 0 332 -84q12 -1 22 0 q31 0 72 20.5t41 65.5q0 18 -20.5 33.5t-43.5 17.5q-49 6 -72.5 33.5t-23.5 62.5q0 80 94 80q57 0 99 -56.5t42 -129.5q0 -154 -128 -182q115 -90 179 -227.5t64 -307.5z"></glyph>
      <glyph glyph-name="ohorn" unicode="ơ" d="M78 420q0 217 120.5 348t321.5 131q120 0 211 -45q30 -6 64 -6q16 0 38.5 5t46 25.5t23.5 51.5q0 39 -57 47q-49 4 -73.5 30.5t-24.5 61.5q0 80 94 80q57 0 94 -53.5t37 -126.5q0 -77 -40 -125t-110 -56q30 -30 53 -68t38.5 -82t23.5 -94t8 -106q0 -205 -116.5 -331.5 t-317.5 -126.5q-199 0 -316.5 125t-117.5 315zM506 817q-90 0 -148.5 -55t-79 -132t-20.5 -175q0 -92 20.5 -174t86 -151t165.5 -69q102 0 169 96.5t67 243.5q0 207 -54 311.5t-206 104.5z"></glyph>
      <glyph glyph-name="uni01A2" unicode="Ƣ" d="M684 1278q-168 0 -295 -154.5t-127 -453.5q0 -287 140.5 -456t349.5 -169q125 0 223 80v1040q-125 113 -291 113zM1327 1233l-199 12v-1122q-170 -147 -415 -148q-270 0 -454.5 182.5t-184.5 477.5q0 303 181 508t456 205q160 0 293 -72q43 14 77 47h47q162 -14 222 -14 q96 0 137 6t100 33h45v-1491q0 -90 88 -90h49q16 0 17 -17v-39l-4 -4q-150 4 -230 4l-221 -4l-4 4v39q0 16 16 17h50q88 0 88 90v1235q0 98 -27 119.5t-127 21.5z"></glyph>
      <glyph glyph-name="uni01A3" unicode="ƣ" d="M692 688q-84 141 -211 141q-121 0 -186.5 -100t-65.5 -264q0 -111 30 -191.5t77 -122.5t95 -61.5t97 -19.5q104 0 164 45v573zM1249 -324q0 -45 18.5 -63.5t69.5 -26.5l39 -6q16 -2 17 -16v-39l-4 -4q-139 4 -220 4l-213 -4l-4 4v39q0 14 17 16l39 6q49 8 68.5 26.5 t19.5 63.5v994q0 33 -11.5 52t-36 26.5t-42 9.5t-52.5 2q-49 0 -108 -25v-631q-74 -51 -178.5 -87.5t-188.5 -36.5q-104 0 -186 41.5t-128 109.5t-68.5 142.5t-22.5 150.5q0 205 115.5 340t299.5 135q121 0 193 -39q63 -33 266 -33q86 0 173 39t98 39h30v-1229z"></glyph>
      <glyph glyph-name="uni01A4" unicode="Ƥ" d="M524 1241v-586q37 -10 146 -10q315 0 315 313q0 311 -293 312q-90 0 -168 -29zM358 143v1035q0 55 -10 71.5t-39 16.5q-68 -2 -124 -33t-56 -90q0 -29 8 -51q8 -37 8 -50q0 -31 -20.5 -50t-50.5 -19q-29 0 -51.5 19.5t-22.5 64.5q0 51 27.5 108.5t102.5 106.5t181 51h2h2 l111 6q178 10 283 10q133 0 228 -35.5t140 -92t63.5 -109.5t18.5 -107q0 -72 -23.5 -140.5t-74.5 -133t-148.5 -104t-230.5 -39.5q-90 0 -158 20v-455q0 -47 25.5 -67.5t87.5 -20.5h53q16 0 17 -16v-39l-5 -4q-178 4 -258 4l-264 -4l-4 4v39q0 16 17 16h55q61 0 85.5 21.5 t24.5 66.5z"></glyph>
      <glyph glyph-name="uni01A5" unicode="ƥ" d="M307 637v-500q76 -88 170 -88q268 0 268 377q0 180 -63.5 279.5t-161.5 99.5q-57 0 -118.5 -45t-94.5 -123zM307 1077v-196l-6 -146h6q109 164 268 164q143 0 236.5 -124t93.5 -294q0 -240 -143 -387q-115 -115 -273 -114q-98 0 -182 45v-349q0 -45 18.5 -63.5 t67.5 -26.5l39 -6q18 -2 19 -16v-39l-5 -4q-141 4 -221 4l-211 -4l-4 4v39q0 14 17 16l39 6q51 8 69.5 26.5t18.5 63.5v1340q0 174 72.5 294t224.5 120q68 0 129 -31t61 -74q0 -37 -19.5 -58.5t-46.5 -21.5q-59 0 -86 90q-6 33 -30 33q-70 0 -111 -75t-41 -216z"></glyph>
      <glyph glyph-name="uni01A6" unicode="Ʀ" d="M1018 795q0 -117 -92 -199t-185 -104l213 -490q84 -158 193 -158l6 -41q-35 -14 -86 -14q-168 0 -266 176l-211 477q-10 23 -41 28t-166 5v-332q0 -47 25.5 -67.5t87.5 -20.5h53q16 0 16 -16v-39l-4 -4q-176 4 -258 4l-262 -4l-4 4v39q0 16 14 16h55q61 0 86 21.5 t25 66.5v1033q0 90 -111 90h-55q-16 0 -16 16v39l4 2q178 -2 258 -2l264 2l4 -2v-39q0 -16 -16 -16h-53q-113 0 -113 -90v-52q43 2 156 2q98 0 179 -16t151.5 -52t109.5 -103.5t39 -159.5zM852 793q0 139 -88 200.5t-203 61.5q-100 0 -178 -17v-491h102q174 0 270.5 51.5 t96.5 194.5z"></glyph>
      <glyph glyph-name="uni01A7" unicode="Ƨ" d="M199 1292q27 4 107.5 30t191.5 26q143 0 264 -100.5t121 -254.5q0 -84 -38 -152.5t-109.5 -116.5t-124 -73.5t-128.5 -54.5q-113 -45 -170 -104.5t-57 -186.5q0 -121 77 -188.5t197 -67.5q250 0 320 316l61 -7q-35 -268 -39 -358q-16 0 -44.5 5t-49.5 5q-6 0 -85 -17.5 t-197 -17.5q-172 0 -289 120t-117 282q0 88 30 155.5t89 112.5t111.5 70.5t132.5 54.5q289 102 288 279q0 96 -63.5 162.5t-161.5 66.5q-72 0 -125 -26.5t-87 -79t-51 -94.5t-36 -107l-61 10q33 180 43 311z"></glyph>
      <glyph glyph-name="uni01A8" unicode="ƨ" d="M672 287l-15 -287q-18 4 -47 4q-25 0 -39 -4q-76 -20 -184 -20q-41 0 -90 12t-101.5 39.5t-86 81t-33.5 125.5q0 113 77.5 179t223.5 120q84 31 116.5 66.5t32.5 96.5q0 137 -157 138q-20 0 -46 -8.5t-59 -29t-62.5 -62.5t-43.5 -101l-49 2q2 94 20 209q102 51 240 51 q123 0 202.5 -63.5t79.5 -165.5q0 -106 -49 -156.5t-176 -105.5q-121 -51 -167 -100.5t-46 -117.5q0 -70 58.5 -111.5t119.5 -41.5q100 0 160 59q61 66 74 193z"></glyph>
      <glyph glyph-name="uni01A9" unicode="Ʃ" d="M252 1321h690q74 0 123 6l4 -6q-4 -57 -4 -59q0 -35 4 -68l-4 -8q-352 18 -578 24l-156 -3l369 -529l-464 -580q178 8 290 13l578 24l4 -8q-4 -33 -4 -68q0 -2 4 -59l-4 -6q-49 6 -123 6h-793l-143 -4l-4 4v49l4 6q23 23 39 43l432 535l4 2l-379 545q-41 59 -73 86l-5 4 v51l5 2z"></glyph>
      <glyph glyph-name="uni01AA" unicode="ƪ" d="M4 1231q0 90 62.5 144.5t156.5 54.5q117 0 173.5 -83t56.5 -294v-1026q0 -285 43 -349q29 -53 75 -53q29 0 50 53q27 59 63 60q63 0 64 -72q0 -37 -51.5 -68.5t-131.5 -31.5q-33 0 -83 19.5t-83 49.5q-47 43 -70.5 120t-26.5 140.5t-3 194.5v789q0 113 20 188 q-51 -33 -98 -33q-100 0 -158.5 54.5t-58.5 142.5zM356 1231q0 55 -35.5 99t-99 44t-99.5 -43t-36 -100t37 -99t98 -42q59 0 97 42t38 99z"></glyph>
      <glyph glyph-name="uni01AB" unicode="ƫ" d="M336 -297q-33 0 -53.5 22.5t-20.5 55.5q0 41 30 55t77 18.5t65 16.5q55 33 55 121v5q-56 -18 -120 -17q-76 0 -128.5 51t-52.5 145q0 23 3.5 142.5t3.5 189.5v280q-96 0 -146 -4l-10 15q29 45 45 84q29 -4 111 -4q0 63 4 145t4 117l4 6q31 4 52.5 11t49 20.5t41.5 19.5 q18 0 19 -20q-10 -131 -11 -299h97q39 0 143 4l10 -15q-16 -41 -24 -84q-41 4 -148 4h-78v-258q0 -70 -3 -159.5t-3 -112.5q0 -158 68 -168q79 -13 161 16l25 -51q-33 -21 -61 -35q2 -20 2 -40q0 -123 -76 -200t-135 -77z"></glyph>
      <glyph glyph-name="uni01AC" unicode="Ƭ" d="M1063 1321q43 0 43 47l53 6q8 -205 31 -313l-62 -10q-31 127 -57.5 157.5t-107.5 30.5h-136q-57 0 -77.5 -17.5t-20.5 -68.5v-1008q0 -47 26.5 -68.5t86.5 -21.5h55q16 0 16 -16v-39l-4 -4q-180 4 -260 4l-262 -4l-4 4v39q0 16 16 16h54q113 0 112 90v1014 q0 47 -21.5 63.5t-76.5 16.5h-137q-180 0 -180 -100q0 -23 8 -47q8 -33 8 -50q0 -31 -20.5 -50t-51.5 -19q-74 0 -74 84q0 37 16.5 79t50.5 85t97.5 71.5t147.5 28.5h731z"></glyph>
      <glyph glyph-name="uni01AD" unicode="ƭ" d="M336 799v-523q0 -100 14.5 -144t52.5 -44q74 0 148 57l37 -34q-121 -135 -256 -136q-150 0 -150 203v621h-133q-8 0 -8 8v63q0 8 6 9q43 0 71.5 15t41 41t16.5 44t4 37v6q2 174 75 291t222 117q68 0 130.5 -31t62.5 -74q0 -37 -19.5 -58.5t-46.5 -21.5q-66 0 -86 90 q-8 33 -33 33q-61 0 -101 -60.5t-48 -173.5v-255h225q16 0 17 -13v-41q0 -27 -50 -26h-192z"></glyph>
      <glyph glyph-name="uni01AE" unicode="Ʈ" d="M528 1159q0 47 -21.5 63.5t-78.5 16.5h-172q-86 0 -118 -32.5t-62 -155.5l-62 10q31 133 45 315l56 -8q0 -47 43 -47h866q45 0 45 47l53 6q8 -205 31 -313l-61 -10q-31 127 -57.5 157.5t-108.5 30.5h-135q-57 0 -78 -17.5t-21 -68.5v-1153q0 -197 43 -269.5t125 -72.5 q61 0 70 53q20 80 80 80q63 0 63 -61q0 -72 -69.5 -104t-143.5 -32q-53 0 -106.5 19.5t-106.5 61.5t-86 126t-33 199v1159z"></glyph>
      <glyph glyph-name="Uhorn" unicode="Ư" d="M1260 1266q-88 0 -89 -90v-576q0 -147 -22.5 -252.5t-76.5 -193.5t-157.5 -133.5t-257.5 -45.5q-80 0 -153.5 21.5t-150.5 73t-124 157t-47 252.5v697q0 47 -25.5 68.5t-84.5 21.5h-56q-16 0 -16 16v39l4 2q178 -2 258 -2l264 2l4 -2v-39q0 -16 -16 -16h-53 q-113 0 -113 -90v-629q0 -90 3 -139.5t29 -122t77 -123.5q106 -102 243 -103q100 0 172 32t111 78t61.5 118.5t27.5 133t5 142.5v613q0 47 -25.5 68.5t-84.5 21.5h-56q-16 0 -16 16v39l4 2q145 -2 225 -2q127 0 165 10t38 43q0 39 -61 39q-49 0 -73 24.5t-24 59.5 q0 37 28 58.5t73 21.5q57 0 96 -50t39 -122q0 -66 -38.5 -102.5t-106.5 -36.5z"></glyph>
      <glyph glyph-name="uhorn" unicode="ư" d="M748 188q-57 -88 -139.5 -148t-170.5 -60q-141 0 -204.5 81.5t-63.5 202.5v246q0 238 -18 369l4 6q37 -6 96 -6t96 6l4 -6q-18 -123 -18 -369v-203q0 -129 36 -171t101 -42q72 0 150.5 64.5t130.5 150.5v201q0 233 -19 369l4 6q37 -6 97 -6h13t16 0.5t18 0.5v3 q29 4 56.5 21.5t27.5 33.5q0 41 -56 43q-49 2 -73.5 27.5t-24.5 60.5q0 80 94 80q57 0 93 -53.5t36 -126.5q0 -41 -27 -80.5t-79 -55.5q-12 -106 -13 -323v-117q0 -207 35 -393l-4 -6q-41 6 -91 6q-24 0 -71 -6q-18 0 -18 6l-10 182z"></glyph>
      <glyph glyph-name="uni01B1" unicode="Ʊ" d="M258 1202q-82 0 -114.5 -21.5t-41.5 -101.5h-53l14 242h197q182 0 182 -127q0 -78 -98 -309.5t-98 -333.5q0 -223 113.5 -364.5t310.5 -141.5q201 0 311.5 146.5t110.5 357.5q0 129 -53.5 267t-106.5 242.5t-53 153.5q0 55 59 82t203 27h143l14 -242h-53 q-6 76 -38.5 99.5t-116.5 23.5q-94 0 -95 -45q0 -29 43 -96.5t95.5 -138t95.5 -174t43 -197.5q0 -225 -160 -400.5t-442 -175.5q-293 0 -448.5 165t-155.5 411q0 92 44 195.5t96 175t96 139t44 96.5q0 45 -88 45z"></glyph>
      <glyph glyph-name="uni01B2" unicode="Ʋ" d="M182 451v725q0 90 -110 90h-56q-16 0 -16 16v39l4 2q178 -2 258 -2l264 2l4 -2v-39q0 -16 -16 -16h-53q-113 0 -113 -90v-666q0 -82 6 -144.5t25.5 -125t52.5 -102.5t89.5 -64.5t133.5 -24.5q203 0 349.5 179.5t146.5 494.5q0 59 -7 134t-25.5 180.5t-65.5 174t-115 68.5 q-59 0 -68 -49q-2 -14 -7 -30.5t-24.5 -36t-47.5 -19.5q-25 0 -46.5 16.5t-21.5 50.5q0 72 71.5 104t145.5 32q158 0 232.5 -164t74.5 -422q0 -193 -43 -340.5t-105.5 -229t-147.5 -133t-154.5 -68t-141.5 -16.5q-221 0 -347 104t-126 372z"></glyph>
      <glyph glyph-name="uni01B3" unicode="Ƴ" d="M473 891q-59 104 -91 157.5t-75 116t-72.5 88t-56.5 25.5q-57 0 -57 -43q0 -6 2 -23.5t2 -27.5q0 -74 -62 -74q-31 0 -47 21.5t-16 46.5q0 57 68.5 114.5t169.5 57.5q88 0 177 -92.5t216 -303.5l151 -256l260 482q23 39 23 57q0 16 -10.5 22.5t-40.5 6.5h-62 q-12 0 -12 14v41l4 2q162 -2 189 -2l178 2l4 -2v-41q0 -14 -21 -14h-43q-45 0 -71.5 -19.5t-53.5 -70.5l-305 -576v-455q0 -47 26.5 -68.5t86.5 -21.5h53q18 0 19 -16v-39l-5 -4q-178 4 -258 4l-264 -4l-4 4v39q0 16 17 16h53q113 0 112 90v430z"></glyph>
      <glyph glyph-name="uni01B4" unicode="ƴ" d="M856 684q-199 -440 -362 -836q-31 -74 -51.5 -115.5t-56.5 -96t-79 -81t-94 -26.5q-39 0 -79 23.5t-40 72.5q0 41 23.5 60.5t54.5 19.5q41 0 64 -29q35 -35 55 -34q31 0 153 301q16 33 16.5 63.5t-34.5 116.5l-258 600q-25 59 -49.5 79.5t-75.5 20.5q-20 0 -20 15v41l4 4 q90 -4 151 -4l244 4l4 -6v-37q0 -16 -23 -17q-88 0 -88 -45q0 -20 13 -47l225 -528l227 520q90 203 173 310.5t175 107.5q145 0 146 -97q0 -31 -23.5 -55t-56.5 -24q-55 0 -84 28q-12 14 -49 15q-23 0 -49.5 -29t-57 -87t-49 -98t-49.5 -110z"></glyph>
      <glyph glyph-name="uni01B5" unicode="Ƶ" d="M383 111q119 0 313.5 10t329.5 21l135 12l4 -7q-4 -33 -4 -67q0 -23 4 -80l-4 -6q-49 6 -145 6h-744l-178 -6l-6 8q12 16 30.5 44t22.5 32l378 553h-304v69h351l331 486q16 25 -6 24q-113 0 -225.5 -7t-257 -18t-244.5 -18l-4 7q4 33 4 67q0 23 -4 80l4 6q49 -6 125 -6 h622q166 0 258 12q12 0 13 -12q0 -25 -62 -111l-349 -510h310v-69h-357l-331 -484q-10 -13 -10 -36z"></glyph>
      <glyph glyph-name="uni01B6" unicode="ƶ" d="M278 102q111 1 239 6.5t201 11.5l73 5l4 -6q-4 -33 -4 -64q0 -2 4 -55l-4 -6q-45 6 -115 6h-463l-166 -6l-6 9q12 13 45 63l233 344h-178v69h225l201 297q-104 -1 -220.5 -7t-181.5 -11l-65 -4l-4 6q4 33 4 63q0 2 -4 56l4 6q47 -6 115 -6h418q20 0 49 2t52 4t42 4t22 2 q6 0 8.5 -3t2.5 -9q-14 -16 -61 -86l-213 -314h170v-69h-218z"></glyph>
      <glyph glyph-name="uni01B7" unicode="Ʒ" d="M342 1321h727q57 0 57 -29q0 -33 -30 -84l-344 -618q197 -39 300 -172t103 -314q0 -215 -177 -375.5t-421 -160.5q-90 0 -194.5 22.5t-190.5 71.5t-86 113q0 102 90 102q94 0 139 -72q106 -162 281 -161q131 0 254 147.5t123 294.5q0 115 -38 204t-98.5 137t-122 71.5 t-118.5 23.5q-55 0 -84 -6l401 723h-510q-100 -2 -155 -87t-64 -175l-53 4l43 385q12 -2 75.5 -23.5t92.5 -21.5z"></glyph>
      <glyph glyph-name="uni01B8" unicode="Ƹ" d="M907 1321q31 0 93.5 21.5t76.5 23.5l43 -385l-53 -6q-8 92 -63.5 177t-155.5 87h-510l399 -723q-29 6 -84 6q-57 0 -118.5 -23.5t-121 -71.5t-97 -137t-37.5 -204q0 -150 121.5 -296t254.5 -146q174 0 281 161q45 72 137 72t92 -102q0 -63 -86 -112.5t-190.5 -72 t-194.5 -22.5q-244 0 -422 160.5t-178 375.5q0 180 103.5 313.5t302.5 172.5l-342 618q-33 57 -33 84q0 29 55 29h727z"></glyph>
      <glyph glyph-name="uni01B9" unicode="ƹ" d="M649 879q43 0 43 36l45 9l66 -312l-55 -10q-25 117 -65 157t-95 40h-291l321 -582q-63 14 -120 14q-121 0 -209 -87t-88 -216q0 -164 93 -251t187 -87q117 0 166 95q35 57 107 57q59 0 59 -64q0 -53 -90 -100t-223 -47q-209 0 -331 120t-122 279q0 164 96.5 265.5 t274.5 115.5l-268 482q-20 45 -21 59q0 27 49 27h471z"></glyph>
      <glyph glyph-name="uni01BA" unicode="ƺ" d="M532 444q133 -6 212 -88t79 -225q0 -82 -25.5 -140.5t-68.5 -90t-85 -50t-88 -33t-62 -26.5q-80 -51 -80 -100q0 -16 7 -41t7 -35q0 -37 -24.5 -62.5t-51.5 -25.5q-29 0 -51 19.5t-22 56.5q0 80 45 132t147 118q20 12 63.5 28.5t66 29.5t43 65.5t20.5 138.5q0 47 -8.5 87 t-29 83t-63.5 67.5t-104 24.5q-16 0 -144 -29l314 445h-365q-68 0 -91 -25t-42 -121l-41 4l33 252q33 -4 56.5 -14t56.5 -10h536q29 0 29 -17q0 -35 -25 -69z"></glyph>
      <glyph glyph-name="uni01BB" unicode="ƻ" d="M739 580v-70h-127q-110 -141 -286 -311q-36 -35 -36 -56q0 -3 0.5 -5t2.5 -5q56 4 167 4q190 0 375 17q-10 -41 -10 -97q0 -24 6 -67q-244 10 -356 10q-10 0 -388 -10q-21 34 -20 80q1 15 3 26l74 69t111 105.5t103.5 107t115.5 132.5h-259v70h312q15 20 25 36 q78 117 78 275q0 104 -66 173t-150 69q-98 0 -158 -48q-19 -15 -33.5 -34t-20 -28.5t-19 -41.5t-17.5 -41l-27 2l-45 141q28 37 70.5 71.5t119.5 64.5t163 30q112 0 194 -42t123.5 -116.5t41.5 -171.5q0 -145 -141 -339h74z"></glyph>
      <glyph glyph-name="uni01BC" unicode="Ƽ" d="M625 369q0 135 -99.5 225t-208.5 90q-96 0 -157 -22l45 389l-160 110h664l-17 -119v-4h-401l-33 -264l104 4q193 0 299.5 -112.5t106.5 -264.5q0 -201 -113.5 -313.5t-279.5 -112.5q-94 0 -185.5 44t-91.5 102q0 29 20.5 47t49.5 18q51 0 84 -57q45 -84 117 -84 q117 0 186.5 89.5t69.5 234.5z"></glyph>
      <glyph glyph-name="uni01BD" unicode="ƽ" d="M608 283q0 98 -66.5 182t-160.5 84q-150 0 -246 -29l70 246l-121 113h625l-17 -119v-4h-401l-35 -127q143 10 178 10q143 0 230.5 -98.5t87.5 -225.5q0 -137 -86 -238.5t-269 -101.5q-96 0 -197.5 45.5t-101.5 100.5q0 29 20.5 47t49.5 18q47 0 82 -61q18 -33 56 -56.5 t85 -23.5q96 0 156.5 59.5t60.5 178.5z"></glyph>
      <glyph glyph-name="uni01BE" unicode="ƾ" d="M152 799h-103q-8 0 -8 8v63q0 8 6 9q84 2 115 58t31 179v39l116 41v-317h226q16 0 16 -13v-41q0 -27 -47 -26h-201v-99q0 -63 28.5 -98t110.5 -65q133 -49 193.5 -116t60.5 -183q0 -72 -36.5 -126.5t-92 -82t-106.5 -41t-94 -13.5q-119 0 -199 23q-29 4 -39 4 q-18 0 -47 -6l-14 291l55 2q6 -129 74 -197q18 -20 66 -39.5t99 -19.5q63 0 129 44t66 113q0 55 -6 83t-43 65t-115 70q-70 31 -102.5 48t-71.5 48t-53 70.5t-14 95.5v129z"></glyph>
      <glyph glyph-name="uni01BF" unicode="ƿ" d="M625 811q-59 0 -127 -37t-183 -129v-749q510 291 510 618q1 297 -200 297zM162 657q0 72 -10.5 98.5t-34.5 28.5l-88 9l-4 49q199 31 282 63q8 0 8 -6l-6 -182h6q203 182 361 182q174 0 246.5 -90t72.5 -221q0 -217 -172 -399.5t-508 -366.5v-217l-272 -74l-8 51 q-4 16 10 19l35 10q82 25 82 123v923z"></glyph>
      <glyph glyph-name="uni01C0" unicode="ǀ" d="M229 -20h-79v1450h79v-1450z"></glyph>
      <glyph glyph-name="uni01C1" unicode="ǁ" d="M438 -20h-80v1450h80v-1450zM229 -20h-79v1450h79v-1450z"></glyph>
      <glyph glyph-name="uni01C2" unicode="ǂ" d="M596 662v-70h-238v-612h-79v612h-228v70h228v147h-228v70h228v551h79v-551h238v-70h-238v-147h238z"></glyph>
      <glyph glyph-name="uni01C3" unicode="ǃ" d="M231 1348q45 0 80 -39t35 -111q0 -76 -22.5 -205t-30.5 -190q-12 -96 -19.5 -183.5t-9.5 -134.5t-4 -55q-4 -41 -28.5 -41t-28.5 27l-10 145q-10 145 -21 242q-8 72 -29.5 193.5t-21.5 201.5q0 76 34.5 113t75.5 37zM117 90v8q27 76 110 111h9q84 -31 110 -111v-8 q-29 -90 -110 -110h-9q-49 10 -72.5 34.5t-37.5 75.5z"></glyph>
      <glyph glyph-name="uni01C4" unicode="Ǆ" d="M389 168q0 -51 39 -66.5t184 -15.5q119 0 206 20.5t163 71.5t116 152.5t40 251.5q0 127 -29 236.5t-92.5 207.5t-179 154.5t-275.5 56.5q-86 0 -129 -16.5t-43 -65.5v-987zM301 1321q66 0 169 3t169 3q295 0 502 -204.5t207 -491.5q0 -145 -43 -259t-110 -182.5 t-158 -113.5t-179 -62.5t-182 -17.5q-115 0 -213 2t-162 2l-106 -6l-2 6q20 139 20 410v501q0 264 -20 410l4 6q34 -6 104 -6zM1931 1427q-74 92 -207 195l33 41q123 -53 217 -125q117 82 219 125l31 -41q-102 -78 -205 -195h-88zM1741 111q119 0 313.5 10t329.5 21l135 12 l4 -7q-4 -33 -4 -67q0 -23 4 -80l-4 -6q-49 6 -145 6h-744l-178 -6l-6 8q12 16 30.5 44t22.5 32l756 1108q16 25 -6 24q-113 0 -225.5 -7t-257 -18t-244.5 -18l-4 7q4 33 4 67q0 23 -4 80l4 6q49 -6 125 -6h622q166 0 258 12q12 0 13 -12q0 -25 -62 -111l-727 -1063 q-10 -13 -10 -36z"></glyph>
      <glyph glyph-name="uni01C5" unicode="ǅ" d="M389 168q0 -51 39 -66.5t184 -15.5q119 0 206 20.5t163 71.5t116 152.5t40 251.5q0 127 -29 236.5t-92.5 207.5t-179 154.5t-275.5 56.5q-86 0 -129 -16.5t-43 -65.5v-987zM301 1321q66 0 169 3t169 3q295 0 502 -204.5t207 -491.5q0 -145 -43 -259t-110 -182.5 t-158 -113.5t-179 -62.5t-182 -17.5q-115 0 -213 2t-162 2l-106 -6l-2 6q20 139 20 410v501q0 264 -20 410l4 6q34 -6 104 -6zM1737 1026q-78 127 -207 266l41 27q145 -106 217 -184q78 80 221 184l39 -27q-137 -154 -209 -266h-102zM1630 102q70 0 148.5 3t140.5 6t114 6.5 t81 5.5l28 2l4 -6q-4 -33 -4 -64q0 -2 4 -55l-4 -6q-45 6 -114 6h-463l-166 -6l-6 9q12 13 45 63l481 710q-104 -1 -221 -7t-181 -11l-65 -4l-4 6q4 33 4 63q0 2 -4 56l4 6q45 -6 115 -6h418q20 0 49 2t52 4t42 4t22 2q6 0 8.5 -3t2.5 -9q-14 -16 -62 -86z"></glyph>
      <glyph glyph-name="uni01C6" unicode="ǆ" d="M739 231v467q-39 61 -82 90t-112 29q-43 0 -84 -15.5t-84 -51t-68.5 -112.5t-25.5 -185q0 -182 57 -274.5t147 -92.5q137 0 252 145zM739 119q-109 -139 -264 -139q-164 0 -267.5 132t-103.5 324q0 207 130.5 335t332.5 128q92 0 172 -45v133q0 293 -18 395l4 7 q92 6 178 41q18 0 19 -21q-18 -227 -19 -385v-631q0 -207 35 -393l-4 -6q-41 6 -91 6q-24 0 -71 -6q-18 0 -18 6l-11 119h-4zM1380 1026q-78 127 -206 266l40 27q145 -106 218 -184q78 80 221 184l39 -27q-137 -154 -209 -266h-103zM1274 102q51 0 106.5 1.5t104 4t95 4.5 t83.5 4.5t65 4.5t43 3l15 1l4 -6q-4 -33 -4 -64q0 -2 4 -55l-4 -6q-45 6 -115 6h-463l-166 -6l-6 9q12 13 45 63l482 710q-104 -1 -221 -7t-182 -11l-64 -4l-4 6q4 33 4 63q0 2 -4 56l4 6q45 -6 114 -6h418q20 0 49 2t52 4t42.5 4t21.5 2q6 0 8.5 -3t2.5 -9q-14 -16 -61 -86 z"></glyph>
      <glyph glyph-name="uni01C7" unicode="Ǉ" d="M391 911v-501q0 -229 17 -285q123 0 267 11t227 23l83 11l4 -8q-4 -33 -4 -72q0 -33 4 -90l-4 -6q-49 6 -123 6h-559l-106 -6l-2 6q20 139 20 410v501q0 264 -20 410l4 6q37 -6 104 -6q70 0 107 6l2 -6q-21 -136 -21 -410zM1212 195v716q0 264 -20 410l4 6q37 -6 104 -6 q70 0 107 6l2 -6q-20 -135 -20 -410v-671q0 -174 -24 -252t-105 -185q-121 -156 -324 -155q-63 0 -92 18l-2 6q25 43 57 168l23 2q39 -72 118 -71q57 0 94 37.5t52.5 109.5t20.5 131.5t5 145.5z"></glyph>
      <glyph glyph-name="uni01C8" unicode="ǈ" d="M391 911v-501q0 -229 17 -285q123 0 267 11t227 23l83 11l4 -8q-4 -33 -4 -72q0 -33 4 -90l-4 -6q-49 6 -123 6h-559l-106 -6l-2 6q20 139 20 410v501q0 264 -20 410l4 6q37 -6 104 -6q70 0 107 6l2 -6q-21 -136 -21 -410zM1196 1233q0 41 32 72.5t72.5 31.5t72.5 -31.5 t32 -72.5t-32 -73t-72.5 -32t-72.5 32t-32 73zM1384 524v-268q0 -223 -20.5 -333.5t-69.5 -188.5q-106 -166 -276 -166q-59 0 -88 18l-2 6q8 31 8 183l33 8q51 -92 123 -92q78 0 103.5 133t25.5 383v285q0 272 -19 397l4 6q88 -6 178 2q12 0 15.5 -3t3.5 -17 q-19 -173 -19 -353z"></glyph>
      <glyph glyph-name="uni01C9" unicode="ǉ" d="M610 1223q0 41 32 72.5t73 31.5t72.5 -31.5t31.5 -72.5t-31.5 -73t-72.5 -32t-73 32t-32 73zM799 514v-268q0 -223 -20.5 -334t-69.5 -188q-106 -166 -277 -166q-59 0 -88 18l-2 6q8 31 8 182l33 9q51 -92 123 -92q78 0 103.5 133t25.5 383v284q0 272 -19 398l5 6 q88 -6 178 2q12 0 15 -3t3 -18q-18 -172 -18 -352zM184 410v577q0 293 -18 395l4 7q92 6 178 41q18 0 19 -21q-18 -248 -19 -385v-614q0 -274 19 -410l-5 -6q-37 6 -96 6t-96 -6l-4 6q18 131 18 410z"></glyph>
      <glyph glyph-name="uni01CA" unicode="Ǌ" d="M221 1321l4 6q16 -6 86 -6l29 4l702 -909q82 -106 97 -113t20 19q3 15 4 43v546q0 264 -20 410l4 6q37 -6 71.5 -6t71.5 6l4 -6q-12 -160 -19 -335t-9 -290.5t-6.5 -328.5t-6.5 -324q-4 -63 -39 -63q-51 0 -88 49l-714 903q-31 41 -45.5 56.5t-23.5 10t-10 -26t-1 -73.5 v-489q0 -264 20 -410l-4 -6q-37 6 -71.5 6t-71.5 -6l-4 6q25 238 29.5 637t-9.5 684zM1724 195v716q0 264 -20 410l4 6q37 -6 104 -6q70 0 107 6l2 -6q-20 -135 -20 -410v-671q0 -174 -24 -252t-105 -185q-121 -156 -324 -155q-63 0 -92 18l-2 6q25 43 57 168l23 2 q39 -72 118 -71q57 0 94 37.5t52.5 109.5t20.5 131.5t5 145.5z"></glyph>
      <glyph glyph-name="uni01CB" unicode="ǋ" d="M221 1321l4 6q16 -6 86 -6l29 4l702 -909q82 -106 97 -113t20 19q3 15 4 43v546q0 264 -20 410l4 6q37 -6 71.5 -6t71.5 6l4 -6q-12 -160 -19 -335t-9 -290.5t-6.5 -328.5t-6.5 -324q-4 -63 -39 -63q-51 0 -88 49l-714 903q-31 41 -45.5 56.5t-23.5 10t-10 -26t-1 -73.5 v-489q0 -264 20 -410l-4 -6q-37 6 -71.5 6t-71.5 -6l-4 6q25 238 29.5 637t-9.5 684zM1542 1223q0 41 32 72.5t73 31.5t72.5 -31.5t31.5 -72.5t-31.5 -73t-72.5 -32t-73 32t-32 73zM1731 514v-268q0 -223 -20.5 -334t-70.5 -188q-106 -166 -276 -166q-59 0 -88 18l-2 6 q8 31 8 182l33 9q51 -92 123 -92q78 0 103.5 133t25.5 383v284q0 272 -19 398l4 6q88 -6 179 2q12 0 15 -3t3 -18q-18 -172 -18 -352z"></glyph>
      <glyph glyph-name="uni01CC" unicode="ǌ" d="M942 369q0 -233 19 -369l-5 -6q-37 6 -96 6t-96 -6l-4 6q18 137 18 369v200q0 121 -32.5 164t-114.5 43q-63 0 -144 -41t-153 -127v-239q0 -238 18 -369l-4 -6q-37 6 -96 6t-96 -6l-4 6q18 125 18 369v112q0 283 -18 398l4 6q90 -8 166 6q12 0 12 -21v-149l4 -6 q158 184 354 184q135 0 194.5 -80t59.5 -244q0 -33 -2 -103t-2 -103zM1161 1223q0 41 32 72.5t73 31.5t72.5 -31.5t31.5 -72.5t-31.5 -73t-72.5 -32t-73 32t-32 73zM1350 514v-268q0 -223 -20.5 -334t-69.5 -188q-106 -166 -277 -166q-59 0 -88 18l-2 6q8 31 8 182l33 9 q51 -92 123 -92q78 0 103.5 133t25.5 383v284q0 272 -19 398l4 6q88 -6 179 2q12 0 15 -3t3 -18q-18 -172 -18 -352z"></glyph>
      <glyph glyph-name="uni01CD" unicode="Ǎ" d="M631 1427q-74 92 -207 195l33 41q123 -53 217 -125q117 82 219 125l31 -41q-102 -78 -205 -195h-88zM834 564q-44 115 -95.5 241t-111.5 264h-4l-216 -504q24 0 102 -2t112 -2q87 0 213 3zM367 468q-59 -145 -103 -265t-67 -209q-25 6 -93 6q-47 0 -71 -6 q348 764 604 1354h57q70 -166 198 -483.5t223 -549t140 -321.5q-35 6 -122 6q-68 0 -103 -6q-4 14 -9.5 32.5t-15 50t-22.5 71t-29 87t-37.5 108.5t-45.5 125q-67 2 -127 2.5t-113 0.5q-117 0 -264 -3z"></glyph>
      <glyph glyph-name="uni01CE" unicode="ǎ" d="M387 1030q-78 127 -207 266l41 27q145 -106 217 -184q78 80 221 184l39 -27q-137 -154 -209 -266h-102zM635 461l-174 -47q-113 -31 -158 -81t-45 -124q0 -49 42 -87t110 -38q82 0 188 80q29 20 29 53zM635 98h-8q-82 -70 -138.5 -94t-140.5 -24q-119 0 -187.5 55 t-68.5 166q0 104 91 183t249 114l191 43q14 4 14 24q0 66 -14.5 114t-33 71.5t-49 37t-51 16.5t-49.5 3q-117 0 -225 -174l-27 2l-34 137l6 8q141 119 301 119q338 0 338 -332q0 -7 -1 -49.5t-2 -91t-2 -98.5t-1 -70q0 -129 34 -160q17 -15 60 -15q25 0 55 11l16 -51 q-60 -63 -163 -63q-58 0 -100.5 30t-59.5 88z"></glyph>
      <glyph glyph-name="uni01CF" unicode="Ǐ" d="M250 1427q-74 92 -207 195l33 41q123 -53 217 -125q117 82 219 125l31 -41q-102 -78 -205 -195h-88zM213 911q0 264 -20 410l4 6q37 -6 104.5 -6t104.5 6l4 -6q-20 -135 -21 -410v-501q0 -264 21 -410l-4 -6q-37 6 -105 6t-104 -6l-4 6q20 139 20 410v501z"></glyph>
      <glyph glyph-name="uni01D0" unicode="ǐ" d="M238 1024q-78 127 -207 266l41 27q145 -106 217 -184q78 80 221 184l39 -27q-137 -154 -209 -266h-102zM184 481q0 272 -18 398l4 6q88 -6 178 2q12 0 15.5 -3t3.5 -18q-18 -172 -19 -352v-145q0 -223 19 -369l-5 -6q-37 6 -96 6t-96 -6l-4 6q18 137 18 369v112z"></glyph>
      <glyph glyph-name="uni01D1" unicode="Ǒ" d="M678 1427q-74 92 -207 195l33 41q123 -53 217 -125q117 82 219 125l31 -41q-102 -78 -205 -195h-88zM727 1257q-168 0 -289 -144t-121 -443q0 -281 141.5 -440.5t338.5 -159.5q180 0 291.5 148.5t111.5 416.5q0 311 -125 466.5t-348 155.5zM1411 674q0 -307 -181 -500.5 t-474 -193.5q-272 0 -461 180t-189 475q0 301 186.5 507t461.5 206q281 0 469 -187.5t188 -486.5z"></glyph>
      <glyph glyph-name="uni01D2" unicode="ǒ" d="M459 1028q-78 127 -207 266l41 27q145 -106 217 -184q78 80 221 184l39 -27q-137 -154 -209 -266h-102zM78 420q0 217 120.5 348t321.5 131q205 0 315.5 -124t110.5 -337q0 -205 -116.5 -331.5t-317.5 -126.5q-199 0 -316.5 125t-117.5 315zM506 817q-90 0 -148.5 -55 t-79 -132t-20.5 -175q0 -92 20.5 -174t86 -151t165.5 -69q102 0 169 96.5t67 243.5q0 207 -54 311.5t-206 104.5z"></glyph>
      <glyph glyph-name="uni01D3" unicode="Ǔ" d="M668 1427q-74 92 -207 195l33 41q123 -53 217 -125q117 82 219 125l31 -41q-102 -78 -205 -195h-88zM1114 911q0 264 -20 410l4 6q37 -6 71.5 -6t71.5 6l4 -6q-20 -135 -20 -410v-307q0 -299 -120 -461.5t-415 -162.5q-80 0 -154.5 21.5t-151.5 72.5t-124 156.5 t-47 252.5v428q0 264 -20 410l4 6q37 -6 104.5 -6t104.5 6l4 -6q-20 -135 -21 -410v-360q0 -457 344 -457q100 0 172 29t112 71t62.5 109.5t28.5 125.5t6 138v344z"></glyph>
      <glyph glyph-name="uni01D4" unicode="ǔ" d="M485 1028q-78 127 -206 266l40 27q145 -106 218 -184q78 80 221 184l39 -27q-137 -154 -209 -266h-103zM748 188q-57 -88 -139.5 -148t-170.5 -60q-141 0 -204.5 81.5t-63.5 202.5v246q0 238 -18 369l4 6q37 -6 96 -6t96 6l4 -6q-18 -123 -18 -369v-203q0 -129 36 -171 t101 -42q72 0 150.5 64.5t130.5 150.5v201q0 233 -19 369l4 6q37 -6 96.5 -6t96.5 6l4 -6q-18 -123 -19 -369v-117q0 -207 35 -393l-4 -6q-41 6 -91 6q-24 0 -71 -6q-18 0 -18 6l-10 182z"></glyph>
      <glyph glyph-name="uni01D5" unicode="Ǖ" d="M492 1452q0 39 26.5 65.5t65.5 26.5t65.5 -26.5t26.5 -65.5t-26.5 -65.5t-65.5 -26.5t-65.5 26.5t-26.5 65.5zM848 1452q0 39 26.5 65.5t65.5 26.5t65.5 -26.5t26.5 -65.5t-26.5 -65.5t-65.5 -26.5t-65.5 26.5t-26.5 65.5zM1114 911q0 264 -20 410l4 6q37 -6 71.5 -6 t71.5 6l4 -6q-20 -135 -20 -410v-307q0 -299 -120 -461.5t-415 -162.5q-80 0 -154.5 21.5t-151.5 72.5t-124 156.5t-47 252.5v428q0 264 -20 410l4 6q37 -6 104.5 -6t104.5 6l4 -6q-20 -135 -21 -410v-360q0 -457 344 -457q100 0 172 29t112 71t62.5 109.5t28.5 125.5t6 138 v344zM934 1548h-500q-27 0 -26 31q0 18 14 38.5t31 20.5h501q29 0 29 -28q0 -20 -15.5 -41t-33.5 -21z"></glyph>
      <glyph glyph-name="uni01D6" unicode="ǖ" d="M780 1337h-499q-27 0 -27 31q0 18 14.5 38.5t30.5 20.5h502q29 0 28 -28q0 -20 -15.5 -41t-33.5 -21zM270 1176q0 41 29 69.5t68 28.5t67.5 -28.5t28.5 -69.5t-28.5 -69t-67.5 -28t-68 28t-29 69zM616 1176q0 41 29 69.5t68 28.5t67.5 -28.5t28.5 -69.5t-27.5 -69 t-68.5 -28t-69 28t-28 69zM748 188q-57 -88 -139.5 -148t-170.5 -60q-141 0 -204.5 81.5t-63.5 202.5v246q0 238 -18 369l4 6q37 -6 96 -6t96 6l4 -6q-18 -123 -18 -369v-203q0 -129 36 -171t101 -42q72 0 150.5 64.5t130.5 150.5v201q0 233 -19 369l4 6q37 -6 96.5 -6 t96.5 6l4 -6q-18 -123 -19 -369v-117q0 -207 35 -393l-4 -6q-41 6 -91 6q-24 0 -71 -6q-18 0 -18 6l-10 182z"></glyph>
      <glyph glyph-name="uni01D7" unicode="Ǘ" d="M889 1741q68 -36 98 -94l-227 -105q-44 -22 -67 -21q-24 0 -23 27q0 19 23 38zM492 1452q0 39 26.5 65.5t65.5 26.5t65.5 -26.5t26.5 -65.5t-26.5 -65.5t-65.5 -26.5t-65.5 26.5t-26.5 65.5zM848 1452q0 39 26.5 65.5t65.5 26.5t65.5 -26.5t26.5 -65.5t-26.5 -65.5 t-65.5 -26.5t-65.5 26.5t-26.5 65.5zM1114 911q0 264 -20 410l4 6q37 -6 71.5 -6t71.5 6l4 -6q-20 -135 -20 -410v-307q0 -299 -120 -461.5t-415 -162.5q-80 0 -154.5 21.5t-151.5 72.5t-124 156.5t-47 252.5v428q0 264 -20 410l4 6q37 -6 104.5 -6t104.5 6l4 -6 q-20 -135 -21 -410v-360q0 -457 344 -457q100 0 172 29t112 71t62.5 109.5t28.5 125.5t6 138v344z"></glyph>
      <glyph glyph-name="uni01D8" unicode="ǘ" d="M660 1530q10 4 23 4q51 0 90 -42l5 -21l-188 -201q-31 -35 -49 -35q-20 3 -23 24q0 18 19 52zM270 1176q0 41 29 69.5t68 28.5t67.5 -28.5t28.5 -69.5t-28.5 -69t-67.5 -28t-68 28t-29 69zM616 1176q0 41 29 69.5t68 28.5t67.5 -28.5t28.5 -69.5t-27.5 -69t-68.5 -28 t-69 28t-28 69zM748 188q-57 -88 -139.5 -148t-170.5 -60q-141 0 -204.5 81.5t-63.5 202.5v246q0 238 -18 369l4 6q37 -6 96 -6t96 6l4 -6q-18 -123 -18 -369v-203q0 -129 36 -171t101 -42q72 0 150.5 64.5t130.5 150.5v201q0 233 -19 369l4 6q37 -6 96.5 -6t96.5 6l4 -6 q-18 -123 -19 -369v-117q0 -207 35 -393l-4 -6q-41 6 -91 6q-24 0 -71 -6q-18 0 -18 6l-10 182z"></glyph>
      <glyph glyph-name="uni01D9" unicode="Ǚ" d="M492 1452q0 39 26.5 65.5t65.5 26.5t65.5 -26.5t26.5 -65.5t-26.5 -65.5t-65.5 -26.5t-65.5 26.5t-26.5 65.5zM848 1452q0 39 26.5 65.5t65.5 26.5t65.5 -26.5t26.5 -65.5t-26.5 -65.5t-65.5 -26.5t-65.5 26.5t-26.5 65.5zM1114 911q0 264 -20 410l4 6q37 -6 71.5 -6 t71.5 6l4 -6q-20 -135 -20 -410v-307q0 -299 -120 -461.5t-415 -162.5q-80 0 -154.5 21.5t-151.5 72.5t-124 156.5t-47 252.5v428q0 264 -20 410l4 6q37 -6 104.5 -6t104.5 6l4 -6q-20 -135 -21 -410v-360q0 -457 344 -457q100 0 172 29t112 71t62.5 109.5t28.5 125.5t6 138 v344zM660 1510q-12 16 -24.5 32t-25.5 30.5t-26 28.5t-27.5 28t-27.5 26t-28 26l25 36q95 -47 167 -110q30 24 56.5 43t54.5 36t58 31l23 -36q-78 -68 -157 -171h-68z"></glyph>
      <glyph glyph-name="uni01DA" unicode="ǚ" d="M492 1319q-62 114 -166 240l33 24q116 -97 174 -166q62 71 177 166l31 -24q-110 -138 -167 -240h-82zM270 1176q0 41 29 69.5t68 28.5t67.5 -28.5t28.5 -69.5t-28.5 -69t-67.5 -28t-68 28t-29 69zM616 1176q0 41 29 69.5t68 28.5t67.5 -28.5t28.5 -69.5t-27.5 -69 t-68.5 -28t-69 28t-28 69zM748 188q-57 -88 -139.5 -148t-170.5 -60q-141 0 -204.5 81.5t-63.5 202.5v246q0 238 -18 369l4 6q37 -6 96 -6t96 6l4 -6q-18 -123 -18 -369v-203q0 -129 36 -171t101 -42q72 0 150.5 64.5t130.5 150.5v201q0 233 -19 369l4 6q37 -6 96.5 -6 t96.5 6l4 -6q-18 -123 -19 -369v-117q0 -207 35 -393l-4 -6q-41 6 -91 6q-24 0 -71 -6q-18 0 -18 6l-10 182z"></glyph>
      <glyph glyph-name="uni01DB" unicode="Ǜ" d="M543 1739l190 -151q24 -19 24 -38q0 -11 -7 -19t-17 -8q-24 0 -67 21l-243 114q48 53 120 81zM492 1452q0 39 26.5 65.5t65.5 26.5t65.5 -26.5t26.5 -65.5t-26.5 -65.5t-65.5 -26.5t-65.5 26.5t-26.5 65.5zM848 1452q0 39 26.5 65.5t65.5 26.5t65.5 -26.5t26.5 -65.5 t-26.5 -65.5t-65.5 -26.5t-65.5 26.5t-26.5 65.5zM1114 911q0 264 -20 410l4 6q37 -6 71.5 -6t71.5 6l4 -6q-20 -135 -20 -410v-307q0 -299 -120 -461.5t-415 -162.5q-80 0 -154.5 21.5t-151.5 72.5t-124 156.5t-47 252.5v428q0 264 -20 410l4 6q37 -6 104.5 -6t104.5 6 l4 -6q-20 -135 -21 -410v-360q0 -457 344 -457q100 0 172 29t112 71t62.5 109.5t28.5 125.5t6 138v344z"></glyph>
      <glyph glyph-name="uni01DC" unicode="ǜ" d="M439 1557l114 -232q3 -7 5 -13t3 -11.5t1.5 -10t0.5 -10.5q0 -20 -24 -20q-13 0 -48 37l-187 201l4 20q50 42 106 43q12 0 25 -4zM270 1176q0 41 29 69.5t68 28.5t67.5 -28.5t28.5 -69.5t-28.5 -69t-67.5 -28t-68 28t-29 69zM616 1176q0 41 29 69.5t68 28.5t67.5 -28.5 t28.5 -69.5t-27.5 -69t-68.5 -28t-69 28t-28 69zM748 188q-57 -88 -139.5 -148t-170.5 -60q-141 0 -204.5 81.5t-63.5 202.5v246q0 238 -18 369l4 6q37 -6 96 -6t96 6l4 -6q-18 -123 -18 -369v-203q0 -129 36 -171t101 -42q72 0 150.5 64.5t130.5 150.5v201q0 233 -19 369 l4 6q37 -6 96.5 -6t96.5 6l4 -6q-18 -123 -19 -369v-117q0 -207 35 -393l-4 -6q-41 6 -91 6q-24 0 -71 -6q-18 0 -18 6l-10 182z"></glyph>
      <glyph glyph-name="uni01DD" unicode="ǝ" d="M621 319h-377q-29 0 -29 -28q0 -106 54.5 -168t117.5 -62q23 0 52.5 11.5t67.5 37t70 80.5t44 129zM74 666l-41 51q59 82 153.5 132t202.5 50q213 0 326 -135q92 -111 92 -313q0 -213 -130 -342t-290 -129q-184 0 -269 116.5t-85 270.5q0 35 37 34h557q0 182 -49 261 q-74 117 -224 116q-176 1 -280 -112z"></glyph>
      <glyph glyph-name="uni01DE" unicode="Ǟ" d="M293 1452q0 39 27.5 65.5t66.5 26.5t65.5 -26.5t26.5 -65.5t-26.5 -65.5t-65.5 -26.5t-66.5 26.5t-27.5 65.5zM856 1452q0 39 27.5 65.5t66.5 26.5t65.5 -26.5t26.5 -65.5t-26.5 -65.5t-65.5 -26.5t-66.5 26.5t-27.5 65.5zM834 564q-44 115 -95.5 241t-111.5 264h-4 l-216 -504q24 0 102 -2t112 -2q87 0 213 3zM367 468q-59 -145 -103 -265t-67 -209q-25 6 -93 6q-47 0 -71 -6q348 764 604 1354h57q70 -166 198 -483.5t223 -549t140 -321.5q-35 6 -122 6q-68 0 -103 -6q-4 14 -9.5 32.5t-15 50t-22.5 71t-29 87t-37.5 108.5t-45.5 125 q-67 2 -127 2.5t-113 0.5q-117 0 -264 -3zM909 1556h-499q-27 0 -27 31q0 18 14.5 39t30.5 21h502q29 0 28 -29q0 -20 -15.5 -41t-33.5 -21z"></glyph>
      <glyph glyph-name="uni01DF" unicode="ǟ" d="M678 1339h-500q-27 0 -26 31q0 18 14 39t31 21h501q29 0 29 -29q0 -20 -15.5 -41t-33.5 -21zM170 1176q0 41 28.5 69.5t67.5 28.5t67.5 -28.5t28.5 -69.5t-27.5 -69t-68.5 -28t-68.5 28t-27.5 69zM516 1176q0 41 28.5 69.5t67.5 28.5t68 -28.5t29 -69.5t-29 -69t-68 -28 t-67.5 28t-28.5 69zM635 461l-174 -47q-113 -31 -158 -81t-45 -124q0 -49 42 -87t110 -38q82 0 188 80q29 20 29 53zM635 98h-8q-82 -70 -138.5 -94t-140.5 -24q-119 0 -187.5 55t-68.5 166q0 104 91 183t249 114l191 43q14 4 14 24q0 66 -14.5 114t-33 71.5t-49 37 t-51 16.5t-49.5 3q-117 0 -225 -174l-27 2l-34 137l6 8q141 119 301 119q338 0 338 -332q0 -7 -1 -49.5t-2 -91t-2 -98.5t-1 -70q0 -129 34 -160q17 -15 60 -15q25 0 55 11l16 -51q-60 -63 -163 -63q-58 0 -100.5 30t-59.5 88z"></glyph>
      <glyph glyph-name="uni01E0" unicode="Ǡ" d="M846 1591h172q29 0 29 -30q0 -20 -14.5 -40t-33.5 -20h-170zM504 1501h-174q-25 0 -25 31q0 18 14.5 38.5t30.5 20.5h172zM834 564q-44 115 -95.5 241t-111.5 264h-4l-216 -504q24 0 102 -2t112 -2q87 0 213 3zM367 468q-59 -145 -103 -265t-67 -209q-25 6 -93 6 q-47 0 -71 -6q348 764 604 1354h57q70 -166 198 -483.5t223 -549t140 -321.5q-35 6 -122 6q-68 0 -103 -6q-4 14 -9.5 32.5t-15 50t-22.5 71t-29 87t-37.5 108.5t-45.5 125q-67 2 -127 2.5t-113 0.5q-117 0 -264 -3zM565 1599q0 43 32 75t75 32t74.5 -32t31.5 -75 t-31.5 -74.5t-74.5 -31.5t-75 31.5t-32 74.5z"></glyph>
      <glyph glyph-name="uni01E1" unicode="ǡ" d="M680 1337h-500q-27 0 -26 31q0 18 14 38.5t31 20.5h501q29 0 29 -28q0 -20 -15.5 -41t-33.5 -21zM635 461l-174 -47q-113 -31 -158 -81t-45 -124q0 -49 42 -87t110 -38q82 0 188 80q29 20 29 53zM635 98h-8q-82 -70 -138.5 -94t-140.5 -24q-119 0 -187.5 55t-68.5 166 q0 104 91 183t249 114l191 43q14 4 14 24q0 66 -14.5 114t-33 71.5t-49 37t-51 16.5t-49.5 3q-117 0 -225 -174l-27 2l-34 137l6 8q141 119 301 119q338 0 338 -332q0 -7 -1 -49.5t-2 -91t-2 -98.5t-1 -70q0 -129 34 -160q17 -15 60 -15q25 0 55 11l16 -51q-60 -63 -163 -63 q-58 0 -100.5 30t-59.5 88zM338 1223q0 41 31.5 72.5t72.5 31.5t73 -31.5t32 -72.5t-32 -73t-73 -32t-72.5 32t-31.5 73z"></glyph>
      <glyph glyph-name="uni01E2" unicode="Ǣ" d="M1382 1501h-499q-27 0 -27 31q0 18 14.5 38.5t30.5 20.5h502q29 0 29 -28q0 -20 -16 -41t-34 -21zM455 570q-164 -340 -254 -576q-25 6 -92 6q-47 0 -72 -6q52 99 127 247t134.5 265t132.5 255.5t153.5 281t165.5 279.5l4 5q35 -6 104 -6h436q74 0 123 6l4 -6 q-4 -57 -4 -64q0 -20 4 -53l-4 -8q-159 21 -375 21q-115 0 -148 -19t-25 -81q41 -203 95 -435q224 0 459 20l7 -6q-6 -29 -6.5 -57.5t6.5 -56.5l-7 -7q-172 17 -439 21q64 -272 121 -482l435 21l4 -8q-4 -33 -4 -68q0 -2 4 -59l-4 -6q-49 6 -123 6h-280h-3h-110 q-68 0 -102 -6q0 101 -91 578q-68 1 -135 1q-98 0 -241 -3zM813 665q-34 178 -83 428h-4q-109 -192 -224 -426q172 -3 184 -3h58t69 1z"></glyph>
      <glyph glyph-name="uni01E3" unicode="ǣ" d="M954 1102h-499q-27 0 -27 31q0 18 14.5 38.5t30.5 20.5h502q29 0 29 -29q0 -20 -16 -40.5t-34 -20.5zM606 440q-358 -33 -358 -223q0 -135 145 -135q59 0 114.5 32.5t76.5 90.5q22 63 22 235zM768 528q53 2 110.5 3t91.5 1t68.5 2.5t53 6.5t34 14t20.5 27.5t5 44.5 q0 59 -41 119.5t-109 60.5q-96 0 -158.5 -74t-74.5 -205zM414 807q-63 0 -125 -52.5t-107 -129.5l-26 2l-33 137l6 8q152 127 303 127q201 0 281 -143q104 143 291 143q82 0 147.5 -30.5t100 -77t53 -87t18.5 -71.5q0 -102 -53 -148q-33 -18 -89.5 -23t-189.5 -8t-225 -8 q0 -162 69.5 -259t184.5 -97q133 0 252 139l41 -57q-45 -84 -133 -138t-189 -54q-66 0 -117 13t-86.5 39.5t-51 42t-40.5 46.5q-147 -141 -307 -141q-309 0 -309 227q0 131 135 214t391 101q-2 152 -42.5 218.5t-149.5 66.5z"></glyph>
      <glyph glyph-name="uni01E4" unicode="Ǥ" d="M1296 416h99v-80h-100q0 -8 -0.5 -18.5t-0.5 -17.5v-19v-13q0 -74 21 -98v-6q-219 -184 -545 -184q-299 0 -481.5 196.5t-182.5 472.5q0 164 61.5 299t164 220t229.5 132.5t260 47.5q111 0 227.5 -22.5t178.5 -46.5l61 -24l4 -6q-33 -139 -41 -248l-20 -2 q-70 117 -185.5 184.5t-252.5 67.5q-211 0 -343.5 -157.5t-132.5 -423.5q0 -106 28 -208t84 -191t156.5 -143t231.5 -54q219 0 301 78v88l-2 96h-301v80h299q-4 129 -16 213l4 6q35 -6 104 -6l107 6l2 -6q-16 -102 -19 -213z"></glyph>
      <glyph glyph-name="uni01E5" unicode="ǥ" d="M799 592q0 -135 -88 -224t-252 -89q-98 0 -152 28q-61 -53 -61 -114q0 -59 31.5 -78t87.5 -19q2 0 59 4q78 10 170 11q209 0 289 -68q86 -74 86 -203q0 -13 -2 -24h26v-76h-46q-51 -109 -201.5 -168t-327.5 -59q-82 0 -157 19t-134 72.5t-61 135.5h-68v76h82q14 37 33 65 q25 20 167 100q4 2 7 4q-79 14 -117.5 61.5t-38.5 115.5q0 82 127 170q-145 84 -145 256q0 143 107.5 227t240.5 84q69 0 125 -18q87 5 189 20.5t134 18.5l6 -7q-6 -29 -6 -53t6 -53l-6 -6q-191 20 -213 21q103 -68 103 -230zM639 582q0 240 -186 239q-88 0 -134.5 -59.5 t-46.5 -163.5q0 -119 45 -178.5t152 -59.5q92 0 131 58t39 164zM210 -184h608q-9 84 -79 125q-59 35 -217 34q-10 0 -78.5 -3t-103.5 -3q-47 -26 -83.5 -67.5t-46.5 -85.5zM808 -260h-593q25 -68 110.5 -103.5t149.5 -35.5q117 0 210.5 36.5t122.5 102.5z"></glyph>
      <glyph glyph-name="Gcaron" unicode="Ǧ" d="M700 1427q-74 92 -206 195l32 41q123 -53 217 -125q117 82 220 125l30 -41q-102 -78 -205 -195h-88zM1118 240q-6 283 -20 389l4 6q35 -6 104 -6l107 6l2 -6q-20 -135 -21 -348v-13q0 -74 21 -98v-6q-219 -184 -545 -184q-299 0 -481.5 196.5t-182.5 472.5 q0 164 61.5 299t164 220t229.5 132.5t260 47.5q111 0 227.5 -22.5t178.5 -46.5l61 -24l4 -6q-33 -139 -41 -248l-20 -2q-70 117 -185.5 184.5t-252.5 67.5q-211 0 -343.5 -157.5t-132.5 -423.5q0 -106 28 -208t84 -191t156.5 -143t231.5 -54q219 0 301 78v88z"></glyph>
      <glyph glyph-name="gcaron" unicode="ǧ" d="M399 1040q-78 127 -206 267l40 26q145 -106 218 -184q78 80 221 184l39 -26q-137 -154 -209 -267h-103zM207 -213q0 -63 54 -108.5t112.5 -61.5t101.5 -16q141 0 242.5 51t101.5 141q0 100 -80 148q-59 35 -217 34q-10 0 -78.5 -3t-103.5 -3q-55 -31 -94 -82t-39 -100z M799 592q0 -135 -88 -224t-252 -89q-98 0 -152 28q-61 -53 -61 -114q0 -59 31.5 -78t87.5 -19q2 0 59 4q78 10 170 11q209 0 289 -68q86 -74 86 -203q0 -104 -84 -181t-206 -111.5t-261 -34.5q-84 0 -159 19t-134 74.5t-59 139.5q0 63 47 135q25 20 167 100q4 2 7 4 q-79 14 -117.5 61.5t-38.5 115.5q0 82 127 170q-145 84 -145 256q0 143 107.5 227t240.5 84q69 0 125 -18q87 5 189 20.5t134 18.5l6 -7q-6 -29 -6 -53t6 -53l-6 -6q-191 20 -213 21q103 -68 103 -230zM639 582q0 240 -186 239q-88 0 -134.5 -59.5t-46.5 -163.5 q0 -119 45 -178.5t152 -59.5q92 0 131 58t39 164z"></glyph>
      <glyph glyph-name="uni01E8" unicode="Ǩ" d="M666 1427q-74 92 -207 195l33 41q123 -53 217 -125q117 82 219 125l30 -41q-102 -78 -204 -195h-88zM213 911q0 264 -20 410l4 6q37 -6 104.5 -6t104.5 6l4 -6q-20 -135 -21 -410v-206q27 3 45 18q240 209 584 604q27 -6 100 -6q72 0 105 6q-422 -371 -623 -602v-4 l643 -727q-39 6 -127 6q-92 0 -127 -6q-449 553 -561 665q-5 4 -12.5 7t-14 4.5t-12.5 2.5v-263q0 -264 21 -410l-4 -6q-37 6 -105 6t-104 -6l-4 6q20 139 20 410v501z"></glyph>
      <glyph glyph-name="uni01E9" unicode="ǩ" d="M586 1319q-78 127 -207 266l41 27q145 -106 217 -185q78 80 221 185l39 -27q-137 -154 -209 -266h-102zM184 410v577q0 293 -18 395l4 7q92 6 178 41q18 0 19 -21q-18 -248 -19 -385v-532q23 2 47.5 9.5t42.5 20.5q63 49 161.5 155.5t162.5 201.5q168 0 207 6l4 -6 q-201 -170 -414 -392q88 -104 163 -185t161 -166t133 -136l-4 -6q-31 6 -123 6q-82 0 -135 -6q-90 129 -121 173t-84 108.5t-117 132.5q-23 20 -84 22v-20q0 -274 19 -410l-5 -6q-37 6 -96 6t-96 -6l-4 6q18 131 18 410z"></glyph>
      <glyph glyph-name="uni01EA" unicode="Ǫ" d="M1151 -291q-88 -137 -217 -137q-86 0 -141.5 45t-55.5 127q0 118 139 245q-59 -9 -120 -9q-272 0 -461 180t-189 475q0 301 186.5 507t461.5 206q281 0 469 -187.5t188 -486.5q0 -231 -105.5 -401.5t-288.5 -244.5q-78 -64 -118.5 -127.5t-40.5 -144.5q0 -41 35 -73.5 t88 -32.5q66 0 139 74zM727 1257q-168 0 -289 -144t-121 -443q0 -281 141.5 -440.5t338.5 -159.5q180 0 291.5 148.5t111.5 416.5q0 311 -125 466.5t-348 155.5z"></glyph>
      <glyph glyph-name="uni01EB" unicode="ǫ" d="M842 -266q-94 -115 -203 -115q-76 0 -119 42t-43 114q0 103 97 208q-28 -3 -62 -3q-199 0 -316.5 124.5t-117.5 315.5q0 217 120.5 348t321.5 131q205 0 315.5 -124t110.5 -337q0 -140 -56.5 -246.5t-160.5 -161.5q-40 -43 -64 -77t-38.5 -73.5t-14.5 -82.5 q0 -35 23.5 -61.5t62.5 -26.5q51 0 109 62l6 -2zM506 817q-90 0 -148.5 -55t-79 -132t-20.5 -175q0 -92 20.5 -174t86 -151t165.5 -69q102 0 169 96.5t67 243.5q0 207 -54 311.5t-206 104.5z"></glyph>
      <glyph glyph-name="uni01EC" unicode="Ǭ" d="M965 1501h-500q-27 0 -27 31q0 18 14.5 38.5t30.5 20.5h502q29 0 29 -28q0 -20 -15.5 -41t-33.5 -21zM1151 -291q-88 -137 -217 -137q-86 0 -141.5 45t-55.5 127q0 118 139 245q-59 -9 -120 -9q-272 0 -461 180t-189 475q0 301 186.5 507t461.5 206q281 0 469 -187.5 t188 -486.5q0 -231 -105.5 -401.5t-288.5 -244.5q-78 -64 -118.5 -127.5t-40.5 -144.5q0 -41 35 -73.5t88 -32.5q66 0 139 74zM727 1257q-168 0 -289 -144t-121 -443q0 -281 141.5 -440.5t338.5 -159.5q180 0 291.5 148.5t111.5 416.5q0 311 -125 466.5t-348 155.5z"></glyph>
      <glyph glyph-name="uni01ED" unicode="ǭ" d="M739 1102h-499q-27 0 -27 31q0 18 14.5 38.5t30.5 20.5h502q29 0 28 -29q0 -20 -15.5 -40.5t-33.5 -20.5zM842 -266q-94 -115 -203 -115q-76 0 -119 42t-43 114q0 103 97 208q-28 -3 -62 -3q-199 0 -316.5 124.5t-117.5 315.5q0 217 120.5 348t321.5 131 q205 0 315.5 -124t110.5 -337q0 -140 -56.5 -246.5t-160.5 -161.5q-40 -43 -64 -77t-38.5 -73.5t-14.5 -82.5q0 -35 23.5 -61.5t62.5 -26.5q51 0 109 62l6 -2zM506 817q-90 0 -148.5 -55t-79 -132t-20.5 -175q0 -92 20.5 -174t86 -151t165.5 -69q102 0 169 96.5t67 243.5 q0 207 -54 311.5t-206 104.5z"></glyph>
      <glyph glyph-name="uni01EE" unicode="Ǯ" d="M563 1427q-74 92 -207 195l33 41q123 -53 217 -125q117 82 219 125l31 -41q-102 -78 -205 -195h-88zM342 1321h727q57 0 57 -29q0 -33 -30 -84l-344 -618q197 -39 300 -172t103 -314q0 -215 -177 -375.5t-421 -160.5q-90 0 -194.5 22.5t-190.5 71.5t-86 113q0 102 90 102 q94 0 139 -72q106 -162 281 -161q131 0 254 147.5t123 294.5q0 115 -38 204t-98.5 137t-122 71.5t-118.5 23.5q-55 0 -84 -6l401 723h-510q-100 -2 -155 -87t-64 -175l-53 4l43 385q12 -2 75.5 -23.5t92.5 -21.5z"></glyph>
      <glyph glyph-name="uni01EF" unicode="ǯ" d="M352 1024q-78 127 -207 266l41 27q145 -106 217 -184q78 80 222 184l39 -27q-137 -154 -209 -266h-103zM102 139v33l410 604l-172 -6q-74 -2 -150 -6l-145 -10l-4 6q4 33 4 63l-4 56l4 6q47 -6 115 -6h418q23 0 49 2l116 10q10 0 11 -12q-14 -16 -62 -86l-346 -510 q29 2 66 2q158 0 252 -109q90 -102 90 -250q0 -174 -111 -286q-111 -115 -285 -115q-98 0 -184 39q-59 27 -108 69l-9 7l43 155l27 2l43 -80q25 -39 45 -61q51 -53 147 -53q221 0 222 291q0 150 -64 225q-57 68 -160 67q-143 0 -256 -47h-2z"></glyph>
      <glyph glyph-name="uni01F0" unicode="ǰ" d="M246 1042q-78 127 -207 267l41 26q145 -106 217 -184q78 80 221 184l39 -26q-137 -154 -209 -267h-102zM373 514v-268q0 -223 -20.5 -334t-69.5 -188q-106 -166 -277 -166q-59 0 -88 18l-2 6q8 31 8 182l33 9q51 -92 123 -92q78 0 103.5 133t25.5 383v284q0 272 -19 398 l5 6q88 -6 178 2q12 0 15 -3t3 -18q-18 -172 -18 -352z"></glyph>
      <glyph glyph-name="uni01F1" unicode="Ǳ" d="M1849 111q119 0 313.5 10t329.5 21l136 12l4 -7q-4 -33 -4 -67q0 -23 4 -80l-4 -6q-49 6 -146 6h-743l-178 -6l-7 8q12 16 31 44t23 32l755 1108q16 25 -6 24q-113 0 -225.5 -7t-256.5 -18t-245 -18l-4 7q4 33 4 67q0 23 -4 80l4 6q49 -6 125 -6h623q166 0 258 12 q12 0 12 -12q0 -25 -61 -111l-727 -1063q-11 -13 -11 -36zM389 168q0 -51 39 -66.5t184 -15.5q119 0 206 20.5t163 71.5t116 152.5t40 251.5q0 127 -29 236.5t-92.5 207.5t-179 154.5t-275.5 56.5q-86 0 -129 -16.5t-43 -65.5v-987zM301 1321q66 0 169 3t169 3 q295 0 502 -204.5t207 -491.5q0 -145 -43 -259t-110 -182.5t-158 -113.5t-179 -62.5t-182 -17.5q-115 0 -213 2t-162 2l-106 -6l-2 6q20 139 20 410v501q0 264 -20 410l4 6q34 -6 104 -6z"></glyph>
      <glyph glyph-name="uni01F2" unicode="ǲ" d="M1745 102q70 0 148 3t140 6t114.5 6.5t80.5 5.5l29 2l4 -6q-4 -33 -4 -64q0 -2 4 -55l-4 -6q-45 6 -115 6h-463l-166 -6l-6 9q12 13 45 63l482 710q-104 -1 -221 -7t-182 -11l-64 -4l-4 6q4 33 4 63q0 2 -4 56l4 6q47 -6 114 -6h418q20 0 49 2t52 4t42.5 4t21.5 2 q6 0 8.5 -3t2.5 -9q-14 -16 -61 -86zM389 168q0 -51 39 -66.5t184 -15.5q119 0 206 20.5t163 71.5t116 152.5t40 251.5q0 127 -29 236.5t-92.5 207.5t-179 154.5t-275.5 56.5q-86 0 -129 -16.5t-43 -65.5v-987zM301 1321q66 0 169 3t169 3q295 0 502 -204.5t207 -491.5 q0 -145 -43 -259t-110 -182.5t-158 -113.5t-179 -62.5t-182 -17.5q-115 0 -213 2t-162 2l-106 -6l-2 6q20 139 20 410v501q0 264 -20 410l4 6q34 -6 104 -6z"></glyph>
      </font>
</defs>
</svg>
